Classic

Mahler Symphony no 9 Columbia SO, Bruno Walter (1962) [FLAC]

  • Download 5x Faster
  • Download torrent
  • Direct Download
  • Rate this torrent +  |  -

Torrent info

Name:Mahler Symphony no 9 Columbia SO, Bruno Walter (1962) [FLAC]

Total Size: 694.46 MB

Magnet: Magnet Link

Seeds: 4

Leechers: 1

Stream: Watch Full Movie @ Movie4u

Last Updated: 2010-12-24 10:48:14 (Update Now)

Torrent added: 2009-08-23 07:18:18



VPN For Torrents

Torrent Files List


Torrent downloaded from Demonoid.com.txt (Size: 694.46 MB) (Files: 35)

 Torrent downloaded from Demonoid.com.txt

0.05 KB

 Share!.txt

0.00 KB

 Thumb.JPG

0.65 KB

 Info.txt

0.77 KB

 Read me.txt

0.27 KB

 Scans

  Tray.png

10.15 MB

  Disc 1.png

10.31 MB

  Disc 2.png

10.15 MB

  Booklet 009.png

12.11 MB

  Booklet 010.png

11.20 MB

  Booklet 007.png

12.29 MB

  Booklet 008.png

12.25 MB

  Booklet 005.png

12.15 MB

  Booklet 006.png

12.26 MB

  Booklet 003.png

12.18 MB

  Booklet 004.png

12.17 MB

  Booklet 001.png

12.38 MB

  Booklet 002.png

12.31 MB

 Checksums.md5

1.87 KB

 CD2

  CD2 playlist.m3u

0.54 KB

  CD2 range.cue

0.72 KB

  CD2 (wav noncompliant).cue

0.92 KB

  CD2 EAC.log

2.68 KB

  CD2 (flac noncompliant).cue

0.92 KB

  03 - IV. Adagio. Sehr langsam und noch zuruckhaltend.flac

103.72 MB

  01 - II. Im Tempo eines gemachlichen Landlers. Etwas tappisch und sehr derb.flac

90.88 MB

  02 - III. Rondo Burleske. Allegro assai. Sehr trotzig.flac

73.26 MB

 CD1

  01 - A Talking Portrait.flac

47.81 MB

  02 - A Working Portrait.flac

90.50 MB

  03 - I. Andante comodo.flac

136.38 MB

  CD1 (flac noncompliant).cue

0.73 KB

  CD1 (wav noncompliant).cue

0.73 KB

  CD1 EAC.log

2.60 KB

  CD1 playlist.m3u

0.32 KB

  CD1 range.cue

0.63 KB
 

Announce URL: http://inferno.demonoid.com:3395/announce

Torrent description

It seems this CD set has been discontinued by the manufacturer, so seize this opportunity to get it now! :)

GUSTAV MAHLER (1860 - 1911)

DISC 1 - Total time: 66'56
1. A Talking Portrait
Bruno Walter in Conversation with Arnold Michaelis
2. A Working Portrait
Recording the Mahler Ninth Symphony, Narrated by John McClure

Symphony No. 9
3. I. Andante comodo

DISC 2 - Total time: 51'51
1. II. Im Tempo eines gemächlichen Ländlers. Etwas täppisch und sehr derb
2. III. Rondo-Burleske. Allegro assai. Sehr trotzig
3. IV. Adagio. Sehr langsam und noch zuruckhaltend

Columbia Symphony Orchestra
BRUNO WALTER

Produced by John McClure.
This recording was enhanced using 20-bit technology for "high definition sound and remixed by Louise de la Fuente (Producer) and Bud Graham [Disc 1, Track 1] & Richard King, (Engineers).

1956/62 Sony Music Entertainment Inc.
© 1994 Sony Classical

Exact Audio Copy V0.99 prebeta 4 from 23. January 2008

EAC extraction logfile from 28. September 2008, 10:50

Bruno Walter, Columbia Symphony Orchestra / Mahler - Symphony no. 9 (disc 1)

Used drive : PLEXTOR CD-R PREMIUM2 Adapter: 1 ID: 1

Read mode : Secure
Utilize accurate stream : Yes
Defeat audio cache : Yes
Make use of C2 pointers : No

Read offset correction : 30
Overread into Lead-In and Lead-Out : No
Fill up missing offset samples with silence : Yes
Delete leading and trailing silent blocks : No
Null samples used in CRC calculations : Yes
Used interface : Installed external ASPI interface
Gap handling : Appended to previous track

Used output format : User Defined Encoder
Selected bitrate : 768 kBit/s
Quality : High
Add ID3 tag : No
Command line compressor : C:\Program Files\Exact Audio Copy\FLAC\FLAC.EXE
Additional command line options : -8 -V -T "ARTIST=%a" -T "TITLE=%t" -T "ALBUM=%g" -T "DATE=%y" -T "TRACKNUMBER=%n" -T "GENRE=%m" -T "COMMENT=EAC FLAC -8" %s


TOC of the extracted CD

Track | Start | Length | Start sector | End sector
---------------------------------------------------------
1 | 0:00.00 | 16:05.45 | 0 | 72419
2 | 16:05.45 | 21:35.25 | 72420 | 169569
3 | 37:40.70 | 29:19.05 | 169570 | 301499


Track 1

Filename D:\Classical\Mahler Symphony no.9 - Columbia SO, Walter (1962) [FLAC]\CD1\01 - A Talking Portrait.wav

Pre-gap length 0:00:02.00

Peak level 52.6 %
Track quality 100.0 %
Test CRC 6BBEF0DD
Copy CRC 6BBEF0DD
Track not present in AccurateRip database
Copy OK

Track 2

Filename D:\Classical\Mahler Symphony no.9 - Columbia SO, Walter (1962) [FLAC]\CD1\02 - A Working Portrait.wav

Pre-gap length 0:00:06.23

Peak level 50.0 %
Track quality 100.0 %
Test CRC BA2D3BE7
Copy CRC BA2D3BE7
Track not present in AccurateRip database
Copy OK

Track 3

Filename D:\Classical\Mahler Symphony no.9 - Columbia SO, Walter (1962) [FLAC]\CD1\03 - I. Andante comodo.wav

Pre-gap length 0:00:06.70

Peak level 78.1 %
Track quality 100.0 %
Test CRC B6F5BBCC
Copy CRC B6F5BBCC
Track not present in AccurateRip database
Copy OK


None of the tracks are present in the AccurateRip database

No errors occurred

End of status report
----------
Exact Audio Copy V0.99 prebeta 4 from 23. January 2008

EAC extraction logfile from 28. September 2008, 11:44

Bruno Walter, Columbia Symphony Orchestra / Mahler - Symphony no. 9 (disc 2)

Used drive : PLEXTOR CD-R PREMIUM2 Adapter: 1 ID: 1

Read mode : Secure
Utilize accurate stream : Yes
Defeat audio cache : Yes
Make use of C2 pointers : No

Read offset correction : 30
Overread into Lead-In and Lead-Out : No
Fill up missing offset samples with silence : Yes
Delete leading and trailing silent blocks : No
Null samples used in CRC calculations : Yes
Used interface : Installed external ASPI interface
Gap handling : Appended to previous track

Used output format : User Defined Encoder
Selected bitrate : 768 kBit/s
Quality : High
Add ID3 tag : No
Command line compressor : C:\Program Files\Exact Audio Copy\FLAC\FLAC.EXE
Additional command line options : -8 -V -T "ARTIST=%a" -T "TITLE=%t" -T "ALBUM=%g" -T "DATE=%y" -T "TRACKNUMBER=%n" -T "GENRE=%m" -T "COMMENT=EAC FLAC -8" %s


TOC of the extracted CD

Track | Start | Length | Start sector | End sector
---------------------------------------------------------
1 | 0:00.00 | 17:37.17 | 0 | 79291
2 | 17:37.17 | 13:09.50 | 79292 | 138516
3 | 30:46.67 | 21:05.08 | 138517 | 233399


Track 1

Filename D:\Classical\Mahler Symphony no.9 - Columbia SO, Walter (1962) [FLAC]\CD2\01 - II. Im Tempo eines gemachlichen Landlers. Etwas tappisch und sehr derb.wav

Pre-gap length 0:00:02.00

Peak level 83.7 %
Track quality 100.0 %
Test CRC 97C8EB9F
Copy CRC 97C8EB9F
Track not present in AccurateRip database
Copy OK

Track 2

Filename D:\Classical\Mahler Symphony no.9 - Columbia SO, Walter (1962) [FLAC]\CD2\02 - III. Rondo Burleske. Allegro assai. Sehr trotzig.wav

Pre-gap length 0:00:03.05

Peak level 98.9 %
Track quality 100.0 %
Test CRC EA0A77CE
Copy CRC EA0A77CE
Track not present in AccurateRip database
Copy OK

Track 3

Filename D:\Classical\Mahler Symphony no.9 - Columbia SO, Walter (1962) [FLAC]\CD2\03 - IV. Adagio. Sehr langsam und noch zuruckhaltend.wav

Peak level 100.0 %
Track quality 100.0 %
Test CRC ABAF9A1C
Copy CRC ABAF9A1C
Track not present in AccurateRip database
Copy OK


None of the tracks are present in the AccurateRip database

No errors occurred

End of status report

related torrents

Torrent name

health leech seeds Size
 


comments (0)

Main Menu

 

script data-cfasync="false" src="//d2ghscazvn398x.cloudfront.net/?cshgd=690275">