Other

Schaurige Schoenheiten Insekten Spinnen & Co German Doku FS DVDRip XVID avi

  • Download 5x Faster
  • Download torrent
  • Direct Download
  • Rate this torrent +  |  -
Schaurige Schoenheiten Insekten Spinnen & Co German Doku FS DVDRip XVID avi

Free and Direct Download with Usenet 300GB+ free


Torrent info

Name:Schaurige Schoenheiten Insekten Spinnen & Co German Doku FS DVDRip XVID avi

Total Size: 500.01 MB

Magnet: Magnet Link

Seeds: 0

Leechers: 0

Stream: Watch Online @ Movie4u

Last Updated: 2010-09-24 03:26:25 (Update Now)

Torrent added: 2009-08-23 07:15:45




Torrent Files List


Schaurige.Schönheiten.Insekten.Spinnen.&.Co.German.Doku.FS.DVDRip.XVID.avi (Size: 500.01 MB) (Files: 1)

 Schaurige.Schönheiten.Insekten.Spinnen.&.Co.German.Doku.FS.DVDRip.XVID.avi

500.01 MB
 

Announce URL: http://tbtracker.lir.dk/announce.php

Torrent description

Schaurige Schönheiten - Insekten, Spinnen & Co.

Story:

Sie sind der Stoff, aus denen Alpträume gemacht sind -
Lebewesen, die im Dunkeln lauern und sich
unseren Blicken fast gänzlich entziehen.
Sie besitzen die Möglichkeit zu täuschen, zu töten,
zu zerstückeln, zu versklaven, ja
andere sogar einer Gehirnwäsche zu unterziehen, so dass
diese tun, was sie wollen. Manche kommen in so
gewaltigen und aggressiven Schwärmen daher, dass
sie den Himmel verdunkeln.
Worum handelt es sich bei diesen Lebewesen?
Es sind Insekten und andere Krabbeltiere.
Schließen Sie sich Phil DeVries auf seiner
Reise in ihre geheimnisvolle Welt an.
Aber machen Sie sich auf Überraschungen gefasst: Wo wir
kleine Biester sehen, sieht DeVries Schönheit; wo uns
Entsetzen packt, empfindet er Freude. Im Namen der
Wissenschaft riskiert DeVries
Begegnungen mit Fleisch zersetzenden Hornissen und
Blut saugenden Egeln. DeVries ist ein lebendes menschliches
Labor, dessen gewagte Versuche dazu beitragen, die
Geheimnisse der Welt der Krabbeltiere zu lüften.


Allgemein
Format : AVI
Format/Info : Audio Video Interleave
Dateigre : 500 MiB
Duration : 52min
Gesamte Bitrate : 1319 Kbps
Verwendetes Programm : VirtualDubMod 1.5.4.1 (build 2178/release)
verwendete Encoder-Bibliothek : VirtualDubMod build 2178/release

Video
Format : MPEG-4 Visual
Format profile : Streaming [email protected]
Format settings, BVOP : Ja
Format settings, QPel : Nein
Format settings, GMC : No warpoints
Format settings, Matrix : Custom
Codec ID : XVID
Codec ID/Hint : XviD
Duration : 52min
Bitrate : 1163 Kbps
Breite : 512 Pixel
Höhe : 384 Pixel
Bildseitenverhältnis : 4/3
Bildwiederholungsrate : 25.000 FPS
Auflösung : 8 bits
Colorimetry : 4:2:0
Scan type : Progressive
Bits/(Pixel*Frame) : 0.237
Stream size : 441 MiB
verwendete Encoder-Bibliothek : XviD 50

Audio
Format : MPEG Audio
Format version : Version 1
Format profile : Layer 3
Codec ID : 55
Codec ID/Hint : MP3
Duration : 52min
Bitraten-Modus : Variable
Bitrate : 143 Kbps
Minimum bit rate : 160 Kbps
Kanäle : 2 Kanäle
Samplingrate : 48.0 KHz
Auflösung : 16 bits
Stream size : 54.3 MiB
verwendete Encoder-Bibliothek : LAME3.98r
Kodierungseinstellungen : ABR

related torrents

Torrent name

health leech seeds Size
 

comments (0)

Main Menu