Other

Sam Cooke Legend

  • Download 5x Faster
  • Download torrent
  • Direct Download
  • Rate this torrent +  |  -
Sam Cooke Legend

Free and Direct Download with Usenet.nl 300GB+ free


Torrent info

Name:Sam Cooke Legend

Total Size: 798.01 MB

Magnet: Magnet Link

Seeds: 0

Leechers: 0

Stream: Watch Online @ Movie4u

Last Updated: 2014-02-05 07:32:58 (Update Now)

Torrent added: 2009-08-23 07:15:31





Torrent Files List


Torrent downloaded from Demonoid.com.txt (Size: 798.01 MB) (Files: 9)

 Torrent downloaded from Demonoid.com.txt

0.05 KB

 SCLscreengrab05.jpg

77.31 KB

 SCLscreengrab04.jpg

61.85 KB

 SCLscreengrab03.jpg

69.07 KB

 SCLscreengrab02.jpg

111.46 KB

 SCLscreengrab01.jpg

100.82 KB

 Sam Cooke - Legend.mp4

797.56 MB

 photothumb.db

44.00 KB

 info.txt

3.69 KB
 

Announce URL:

Torrent description

Written by Peter Guralnick (Lost Highway) and narrated by Jeffrey Wright, Sam Cooke - Legend is a stirring look at a singular talent.

Produced for VH1 but expanded from the original broadcast, this tuneful documentary can't possibly examine every detail of the late singer-songwriter's life in a mere 70 minutes. Nonetheless, Guralnick, who has overseen the reissue of several Cooke CDs, has put together a surprisingly thorough biography.

Destination points include Cooke's gospel roots, groundbreaking career decisions, and forays into the civil rights movement. The story is fleshed out by vintage performance and interview clips (the chats with Dick Clark are particularly insightful).

Commentators include family members and fellow performers like Aretha Franklin, Lou Rawls, and Bobby Womack, while musical highlights include Cooke's version of Dylan's "Blowin' in the Wind" (a song he wished he had written) and a breezy duet with friend Cassius Clay (soon to become Muhammad Ali).

Sam Cooke - Legend.mp4
Format : MPEG-4
Format profile : Base Media
Codec ID : isom
File size : 798 MiB
Duration : 1h 6mn
Overall bit rate : 1 671 Kbps
Encoded date : UTC 2009-05-12 15:43:25
Tagged date : UTC 2009-05-12 15:43:25
Video #1
Format : AVC
Format/Info : Advanced Video Codec
Format profile : [email protected]
Format settings, CABAC : Yes
Format settings, ReFrames : 3 frames
Codec ID : avc1
Codec ID/Info : Advanced Video Coding
Duration : 1h 6mn
Bit rate mode : Variable
Bit rate : 1 536 Kbps
Maximum bit rate : 4 147 Kbps
Width : 720 pixels
Height : 576 pixels
Display aspect ratio : 4/3
Frame rate mode : Constant
Frame rate : 25.000 fps
Standard : PAL
Resolution : 24 bits
Colorimetry : 4:2:0
Scan type : Progressive
Bits/(Pixel*Frame) : 0.148
Stream size : 734 MiB (92%)
Writing library : x264 core 66 r1114M a933a3e
Encoding settings : cabac=1 / ref=3 / deblock=1:0:0 / analyse=0x3:0x133 / me=umh / subme=7 / psy_rd=1.0:0.0 / mixed_ref=1 / me_range=16 / chroma_me=1 / trellis=1 / 8x8dct=1 / cqm=0 / deadzone=21,11 / chroma_qp_offset=-2 / threads=1 / nr=0 / decimate=1 / mbaff=0 / bframes=3 / b_pyramid=0 / b_adapt=1 / b_bias=0 / direct=3 / wpredb=1 / keyint=250 / keyint_min=25 / scenecut=40 / rc=2pass / bitrate=1536 / ratetol=1.0 / qcomp=0.60 / qpmin=10 / qpmax=51 / qpstep=4 / cplxblur=20.0 / qblur=0.5 / vbv_maxrate=25000 / vbv_bufsize=25000 / ip_ratio=1.40 / pb_ratio=1.30 / aq=1:1.00
Encoded date : UTC 2009-05-12 15:43:25
Tagged date : UTC 2009-05-12 15:49:45
Audio #2
Format : AAC
Format/Info : Advanced Audio Codec
Format version : Version 4
Format profile : LC
Format settings, SBR : No
Codec ID : 40
Duration : 1h 6mn
Bit rate mode : Variable
Bit rate : 128 Kbps
Maximum bit rate : 134 Kbps
Channel(s) : 2 channels
Channel positions : L R
Sampling rate : 48.0 KHz
Resolution : 16 bits
Stream size : 61.3 MiB (8%)
Language : English
Encoded date : UTC 2009-05-12 15:49:03
Tagged date : UTC 2009-05-12 15:49:45

related torrents

Torrent name

health leech seeds Size
 

comments (0)

Main Menu