Other

Killer Instinct Schlangen German Doku FS DVDRip XVID avi

  • Download 5x Faster
  • Download torrent
  • Direct Download
  • Rate this torrent +  |  -
Killer Instinct Schlangen German Doku FS DVDRip XVID avi

Anonymous and Direct Download 300GB+ free


Torrent info

Name:Killer Instinct Schlangen German Doku FS DVDRip XVID avi

Total Size: 500.01 MB

Magnet: Magnet Link

Seeds: 0

Leechers: 0

Stream: Watch Online @ Movie4u

Last Updated: 2010-08-25 23:56:41 (Update Now)

Torrent added: 2009-08-23 06:57:10




Torrent Files List


Killer.Instinct.Schlangen.German.Doku.FS.DVDRip.XVID.avi (Size: 500.01 MB) (Files: 1)

 Killer.Instinct.Schlangen.German.Doku.FS.DVDRip.XVID.avi

500.01 MB
 

Announce URL: http://tbtracker.lir.dk/announce.php

Torrent description

Killer Instinct Schlangen

Story:
Killer Instinct ist eine der weltweit erfolgreichsten Naturfilmserien. Über ihren Protagonisten Rob Bredl gibt es viel zu erzählen. Er ist ein begnadeter und erfahrener Jäger, ein Naturschützer, ein großer Tierfreund, ein ausgezeichneter Busch-Koch und ein guter Lehrer. Natürlich auch der Schlangenexperte, wie er uns hier eindringlich darstellt. Er führt uns in die Jagdreviere und Verstecke der gefährlichsten Schlangen des Planeten, einschließlich der Inland Taipan, die, wie er sagt, einen Menschen in drei Sekunden töten kann, wenn sie eine Arterie trifft. Robs erstaunliche Kenntnisse über Kobras, Pythons, Taipans und andere führen den Zuschauer auf eine Reise von tiefer Angst bis hin zu Verständnis und schließlich großem Respekt vor diesen gefährlichen Reptilien. Rob riskiert häufig sein Leben, aber dank seiner großen Erfahrung, die er zum Teil teuer erworben hat, gelingt es ihm, immer wieder atemberaubende Anblicke aus nächster Nähe auf Film zu bannen.

Allgemein
Vollständiger Name : Killer.Instinct.Schlangen.German.Doku.FS.DVDRip.XVID.avi
Format : AVI
Format/Info : Audio Video Interleave
Dateigre : 500 MiB
Duration : 45min
Gesamte Bitrate : 1522 Kbps
Verwendetes Programm : VirtualDubMod 1.5.4.1 (build 2178/release)
verwendete Encoder-Bibliothek : VirtualDubMod build 2178/release

Video
Format : MPEG-4 Visual
Format profile : Streaming [email protected]
Format settings, BVOP : Ja
Format settings, QPel : Nein
Format settings, GMC : No warpoints
Format settings, Matrix : Custom
Codec ID : XVID
Codec ID/Hint : XviD
Duration : 45min
Bitrate : 1367 Kbps
Breite : 512 Pixel
Höhe : 384 Pixel
Bildseitenverhältnis : 4/3
Bildwiederholungsrate : 25.000 FPS
Auflösung : 8 bits
Colorimetry : 4:2:0
Scan type : Progressive
Bits/(Pixel*Frame) : 0.278
Stream size : 449 MiB
verwendete Encoder-Bibliothek : XviD 50

Audio
Format : MPEG Audio
Format version : Version 1
Format profile : Layer 3
Codec ID : 55
Codec ID/Hint : MP3
Duration : 45min
Bitraten-Modus : Variable
Bitrate : 142 Kbps
Minimum bit rate : 160 Kbps
Kanäle : 2 Kanäle
Samplingrate : 48.0 KHz
Auflösung : 16 bits
Stream size : 46.6 MiB
verwendete Encoder-Bibliothek : LAME3.98r
Kodierungseinstellungen : ABR

related torrents

Torrent name

health leech seeds Size
 


comments (0)

Main Menu