Other

Killer Instinct Echsen German Doku FS DVDRip XVID avi

  • Download 5x Faster
  • Download torrent
  • Direct Download
  • Rate this torrent +  |  -
Killer Instinct Echsen German Doku FS DVDRip XVID avi

Anonymous and Free Direct Download 300GB+


Torrent info

Name:Killer Instinct Echsen German Doku FS DVDRip XVID avi

Total Size: 500.01 MB

Magnet: Magnet Link

Seeds: 0

Leechers: 0

Stream: Watch Online @ Movie4u

Last Updated: 2010-05-25 19:36:41 (Update Now)

Torrent added: 2009-08-23 06:57:09



VPN For Torrents

Torrent Files List


Killer.Instinct. Echsen.German.Doku.FS.DVDRip.XVID.avi (Size: 500.01 MB) (Files: 1)

 Killer.Instinct. Echsen.German.Doku.FS.DVDRip.XVID.avi

500.01 MB
 

Announce URL: http://tbtracker.lir.dk/announce.php

Torrent description

Killer.Instinct. Echsen.German.Doku.FS.DVDRip.XVID.avi

Hier stellt uns Rob Bredl u.a. die gewaltigen Komodowarane vor, die grte Warangattung der Erde, und vergleicht sie mit ihren australischen Vettern, den Goannas. Außerdem macht er uns bekannt mit dem
Perentie-Waran, den die Aborigines als "Landkrokodil" bezeichnen. Rob geht mit ein paar Prachtexemplaren auf Tuchfühlung, die unter den extremen Bedingungen ihrer Umwelt ganz auf ihren Killerinstinkt setzen müssen, um darin zu überleben.


Vollständiger Name : Killer.Instinct. Echsen.German.Doku.FS.DVDRip.XVID.avi
Format : AVI
Format/Info : Audio Video Interleave
Dateigre : 500 MiB
Duration : 45min
Gesamte Bitrate : 1539 Kbps
Verwendetes Programm : VirtualDubMod 1.5.4.1 (build 2178/release)
verwendete Encoder-Bibliothek : VirtualDubMod build 2178/release

Video
Format : MPEG-4 Visual
Format profile : Streaming [email protected]
Format settings, BVOP : Ja
Format settings, QPel : Nein
Format settings, GMC : No warpoints
Format settings, Matrix : Custom
Codec ID : XVID
Codec ID/Hint : XviD
Duration : 45min
Bitrate : 1382 Kbps
Breite : 480 Pixel
Höhe : 368 Pixel
Bildseitenverhältnis : 4/3
Bildwiederholungsrate : 25.000 FPS
Auflösung : 8 bits
Colorimetry : 4:2:0
Scan type : Progressive
Bits/(Pixel*Frame) : 0.313
Stream size : 449 MiB
verwendete Encoder-Bibliothek : XviD 50

Audio
Format : MPEG Audio
Format version : Version 1
Format profile : Layer 3
Codec ID : 55
Codec ID/Hint : MP3
Duration : 45min
Bitraten-Modus : Variable
Bitrate : 144 Kbps
Minimum bit rate : 160 Kbps
Kanäle : 2 Kanäle
Samplingrate : 48.0 KHz
Auflösung : 16 bits
Stream size : 46.9 MiB
verwendete Encoder-Bibliothek : LAME3.98r
Kodierungseinstellungen : ABR

related torrents

Torrent name

health leech seeds Size
 


comments (0)

Main Menu