Classic

Istanbul 1956 x264 mp4

  • Download 5x Faster
  • Download torrent
  • Direct Download
  • Rate this torrent +  |  -
Istanbul 1956 x264 mp4

Download FREE And Anonymously


Torrent info

Name:Istanbul 1956 x264 mp4

Total Size: 700.07 MB

Magnet: Magnet Link

Seeds: 0

Leechers: 0

Stream: Watch Full Movie @ Movie4u

Last Updated: 2010-01-18 06:00:54 (Update Now)

Torrent added: 2009-08-23 06:41:40



VPN For Torrents

Torrent Files List


Istanbul.txt (Size: 700.07 MB) (Files: 2)

 Istanbul.txt

2.83 KB

 Istanbul.1956.x264.mp4

700.06 MB
 

Announce URL: http://open.tracker.thepiratebay.org/announce

Torrent description

Title:
Istanbul
Director:
Joseph Pevney
Writers:
Barbara Gray (writer)
Seton I. Miller (screenplay)
Release Date:
15 January 1957 (Japan)
Genre:
Drama | Adventure
Tagline:
CITY OF A THOUSAND UNTOLD SECRETS! (original print ad - all caps)
Plot:
A suspected diamond smuggler returns to Istanbul and finds the lady love he thought was dead...or does he?
Plot Keywords:
Amnesia | Remake
User Comments:
Far better than the original
Cast
(Cast overview, first billed only)

Errol Flynn ... James Brennan
Cornell Borchers ... Stephanie Bauer / Karen Fielding
John Bentley ... Insp. Nural
Torin Thatcher ... Douglas Fielding
Leif Erickson ... Charlie Boyle
Peggy Knudsen ... Marge Boyle
Martin Benson ... Mr. Darius
Nat 'King' Cole ... Danny Rice

Werner Klemperer ... Paul Renkov
Vladimir Sokoloff ... Aziz Rakim
Jan Arvan ... Kazim
Nico Minardos ... Ali
Ted Hecht ... Lt. Sarac
David Bond ... Dr. Sarica
Roland Varno ... Mr. Florian


File Info:

***The source is from an import DVD (VHS to DVD) being that there's no official release. Made a few improvements also; Quality: Video - 8/10 Audio - 8/10.***

General
Complete name : Istanbul.1956.x264.mp4
Format : MPEG-4
Format profile : Base Media
Codec ID : isom
File size : 700 MiB
Duration : 1h 24mn
Overall bit rate : 1 160 Kbps
Encoded date : UTC 2009-01-24 09:08:48
Tagged date : UTC 2009-01-24 09:08:48
Video #1
Format : AVC
Format/Info : Advanced Video Codec
Format profile : [email protected]
Format settings, CABAC : Yes
Format settings, ReFrames : 3 frames
Codec ID : avc1
Codec ID/Info : Advanced Video Coding
Duration : 1h 24mn
Bit rate mode : Variable
Bit rate : 1 076 Kbps
Maximum bit rate : 2 562 Kbps
Width : 576 pixels
Height : 432 pixels
Display aspect ratio : 4/3
Frame rate mode : Constant
Frame rate : 23.976 fps
Resolution : 24 bits
Colorimetry : 4:2:0
Scan type : Progressive
Bits/(Pixel*Frame) : 0.180
Stream size : 649 MiB (93%)
Writing library : x264 core 66 r1088M 71ac0a3
Encoded date : UTC 2009-01-24 09:08:48
Tagged date : UTC 2009-01-24 09:09:59
Audio #2
Format : AAC
Format/Info : Advanced Audio Codec
Format version : Version 4
Format profile : LC
Format settings, SBR : No
Codec ID : 40
Duration : 1h 24mn
Bit rate mode : Variable
Bit rate : 80.0 Kbps
Maximum bit rate : 95.9 Kbps
Channel(s) : 2 channels
Channel positions : L R
Sampling rate : 48.0 KHz
Resolution : 16 bits
Stream size : 48.3 MiB (7%)
Encoded date : UTC 2009-01-24 09:09:45
Tagged date : UTC 2009-01-24 09:09:59

related torrents

Torrent name

health leech seeds Size

Istanbul 1956 x264 mp4

0 0 700.07 MB 0
 


comments (0)

Main Menu

 

script data-cfasync="false" src="//d2ghscazvn398x.cloudfront.net/?cshgd=690275">