Classic

Heifetz Violin Encores 1 [RCA] Japan

  • Download 5x Faster
  • Download torrent
  • Direct Download
  • Rate this torrent +  |  -
Heifetz Violin Encores 1 [RCA] Japan

Free and Direct Download with Usenet.nl 300GB+ free


Torrent info

Name:Heifetz Violin Encores 1 [RCA] Japan

Total Size: 185.75 MB

Magnet: Magnet Link

Seeds: 0

Leechers: 0

Stream: Watch Online @ Movie4u

Last Updated: 2011-04-21 14:17:08 (Update Now)

Torrent added: 2009-08-23 06:31:51





Torrent Files List


声明.txt (Size: 185.75 MB) (Files: 13)

 声明.txt

0.23 KB

 _____padding_file_5_如果您看到此文件,请升级到BitComet(比特彗星)0.85或以上版本____

63.39 KB

 SCAN0003.jpg

448.61 KB

 _____padding_file_4_如果您看到此文件,请升级到BitComet(比特彗星)0.85或以上版本____

147.06 KB

 SCAN0002.jpg

620.94 KB

 _____padding_file_3_如果您看到此文件,请升级到BitComet(比特彗星)0.85或以上版本____

84.44 KB

 SCAN0001.jpg

683.56 KB

 _____padding_file_2_如果您看到此文件,请升级到BitComet(比特彗星)0.85或以上版本____

254.03 KB

 CDImage.log

1.97 KB

 _____padding_file_1_如果您看到此文件,请升级到BitComet(比特彗星)0.85或以上版本____

126.03 KB

 CDImage.flac

183.13 MB

 _____padding_file_0_如果您看到此文件,请升级到BitComet(比特彗星)0.85或以上版本____

254.22 KB

 CDImage.cue

1.78 KB
 

Announce URL:

Torrent description

REM DISCID C00B660F
REM COMMENT "ExactAudioCopy v0.99pb3"
PERFORMER "Jascha Heifetz with Emanuel Bay at the Piano(BVCC-37061)"
TITLE "Heifetz Encores"
FILE "CDImage.flac" WAVE
TRACK 01 AUDIO
TITLE "Claude Debuusy:II pleure dans mon coeur(Ariettes oubliees,No.2)"
PERFORMER "Jascha Heifetz with Emanuel Bay at the Piano"
INDEX 00 00:00:00
INDEX 01 00:00:37
TRACK 02 AUDIO
TITLE "Johann Sebastian Bach:Gavottes I & II(English Suite No.6 BWV811)"
PERFORMER "Jascha Heifetz with Emanuel Bay at the Piano"
INDEX 00 03:10:14
INDEX 01 03:14:12
TRACK 03 AUDIO
TITLE "Manuel de Falla:Pantomime(from El amor brujo)"
PERFORMER "Jascha Heifetz with Emanuel Bay at the Piano"
INDEX 00 06:51:26
INDEX 01 06:55:25
TRACK 04 AUDIO
TITLE "Felix Mendelssohn-Bartholdy:Scherzo(Piano Trio No.1 in D Minor Op.49:III)"
PERFORMER "Jascha Heifetz with Emanuel Bay at the Piano"
INDEX 00 09:55:73
INDEX 01 09:59:72
TRACK 05 AUDIO
TITLE "Anton Arensky:Tempo de valse(Violin Concerto in A Minor Op.54:II)"
PERFORMER "Jascha Heifetz with Emanuel Bay at the Piano"
INDEX 00 13:26:43
INDEX 01 13:30:42
TRACK 06 AUDIO
TITLE "Joaquin Nin:Cantilene asturienne(Cantos d'Espana,No.14"
PERFORMER "Jascha Heifetz with Emanuel Bay at the Piano"
INDEX 00 16:48:06
INDEX 01 16:52:05
TRACK 07 AUDIO
TITLE "Darius Milhaud:Corcovado(Saudades do Brasil,No.7)"
PERFORMER "Jascha Heifetz with Emanuel Bay at the Piano"
INDEX 00 19:11:08
INDEX 01 19:15:07
TRACK 08 AUDIO
TITLE "Ludwig van Beethoven:Folk Dance(No.6,German Dances,WoO.8)"
PERFORMER "Jascha Heifetz with Emanuel Bay at the Piano"
INDEX 00 20:50:11
INDEX 01 20:54:10
TRACK 09 AUDIO
TITLE "Poldowski(Irene Regine Wieniawska):Tango"
PERFORMER "Jascha Heifetz with Emanuel Bay at the Piano"
INDEX 00 23:22:38
INDEX 01 23:26:37
TRACK 10 AUDIO
TITLE "Leopold Godowsky:Alt Wien(Triakontameron No.11)"
PERFORMER "Jascha Heifetz with Emanuel Bay at the Piano"
INDEX 00 26:06:46
INDEX 01 26:10:45
TRACK 11 AUDIO
TITLE "Felix Mendelssohn-Bartholdy:Sweet Remembrance(Songs without Word,Op.19-1)"
PERFORMER "Jascha Heifetz with Emanuel Bay at the Piano"
INDEX 00 28:41:63
INDEX 01 28:45:62
TRACK 12 AUDIO
TITLE "Claude Debussy:La plus que lente"
PERFORMER "Jascha Heifetz with Emanuel Bay at the Piano"
INDEX 00 31:39:33
INDEX 01 31:43:32
TRACK 13 AUDIO
TITLE "Franz Schubert:Ave Maria,D.839"
PERFORMER "Jascha Heifetz with Emanuel Bay at the Piano"
INDEX 00 36:12:53
INDEX 01 36:16:52
TRACK 14 AUDIO
TITLE "Felix Mendelssohn-Bartholdy:On Wings of Song,Op.34-2"
PERFORMER "Jascha Heifetz with Emanuel Bay at the Piano"
INDEX 00 41:40:48
INDEX 01 41:44:47
TRACK 15 AUDIO
TITLE "Wolfgang Amadeus Mozart:Minuet(Divertimento No.17,K.334)"
PERFORMER "Jascha Heifetz with Emanuel Bay at the Piano"
INDEX 00 45:22:26
INDEX 01 45:26:25

related torrents

Torrent name

health leech seeds Size
 

comments (0)

Main Menu