Other

Dirty Sexy Money S02E13 WS PDTV XviD HKG (US Unaired Episode title The Bad Guy)

  • Download 5x Faster
  • Download torrent
  • Direct Download
  • Rate this torrent +  |  -

Torrent info

Name:Dirty Sexy Money S02E13 WS PDTV XviD HKG (US Unaired Episode title The Bad Guy)

Total Size: 349.98 MB

Magnet: Magnet Link

Seeds: 0

Leechers: 0

Stream: Watch Online @ Movie4u

Last Updated: 2010-12-16 14:14:39 (Update Now)

Torrent added: 2009-08-23 05:59:41



VPN For Torrents

Torrent Files List


Dirty.Sexy.Money.S02E13.WS.PDTV.XviD-HKG (US Unaired Episode title The Bad Guy).avi (Size: 349.98 MB) (Files: 1)

 Dirty.Sexy.Money.S02E13.WS.PDTV.XviD-HKG (US Unaired Episode title The Bad Guy).avi

349.98 MB
 

Announce URL: http://tracker.torrenty.org:6969/announce

Torrent description

Screenshot : Dirty Sexy Money S02E13 WS PDTV XviD HKG (US Unaired Episode title The Bad Guy) preview 0
2-13 (23) "The Bad Guy" Craig Wright Bob Berlinger May 31, 2009 (E4 UK) June 18, 2009 (Hong Kong) August 8, 2009 (US)
After an attack, Simon recovers in the Imperial and finally tells Nick his motivations for dealing with the Darlings, leading to a surprise confession about Nick's father. Meanwhile, Lisa publicizes a tell-all book about the Darlings which may damage the family name. Karen suffers a miscarriage but embarks on a long-overdue relationship with Nick.

General
Complete name : Dirty.Sexy.Money.S02E13.WS.PDTV.XviD-HKG (US Unaired Episode title The Bad Guy).avi
Format : AVI
Format/Info : Audio Video Interleave
Format profile : OpenDML
File size : 350 MiB
Duration : 41mn 11s
Overall bit rate : 1 188 Kbps
Writing application : AVI-Mux GUI 1.16.11, Dec 15 2004 14:51:34

Video
Format : MPEG-4 Visual
Format profile : Streaming [email protected]
Format settings, BVOP : Yes
Format settings, QPel : No
Format settings, GMC : No warppoints
Format settings, Matrix : Default (H.263)
Muxing mode : Packed bitstream
Codec ID : XVID
Codec ID/Hint : XviD
Duration : 41mn 11s
Bit rate : 1 074 Kbps
Width : 624 pixels
Height : 352 pixels
Display aspect ratio : 16/9
Frame rate : 25.000 fps
Resolution : 24 bits
Colorimetry : 4:2:0
Scan type : Progressive
Bits/(Pixel*Frame) : 0.196
Stream size : 316 MiB (90%)
Writing library : XviD 1.2.1 (UTC 2008-12-04)

Audio
Format : MPEG Audio
Format version : Version 1
Format profile : Layer 3
Codec ID : 55
Codec ID/Hint : MP3
Duration : 41mn 11s
Bit rate mode : Variable
Bit rate : 106 Kbps
Minimum bit rate : 32.0 Kbps
Channel(s) : 2 channels
Sampling rate : 44.1 KHz
Resolution : 16 bits
Stream size : 31.1 MiB (9%)
Alignment : Aligned on interleaves
Interleave, duration : 26 ms (0.65 video frame)
Interleave, preload duration : 255 ms
Title : 2009-06-18 22-34-04 Pearl_cut
Writing library : LAME3.97
Encoding settings : -m j -V 5 -q 5 -lowpass 16 --vbr-new -b 32

related torrents

Torrent name

health leech seeds Size
 


comments (0)

Main Menu