Other

Dirty Sexy Money S02E12 WS PDTV XviD HKG (US Unaired Episode title The Unexpected Arrival) avi

  • Download 5x Faster
  • Download torrent
  • Direct Download
  • Rate this torrent +  |  -

Torrent info

Name:Dirty Sexy Money S02E12 WS PDTV XviD HKG (US Unaired Episode title The Unexpected Arrival) avi

Total Size: 351.18 MB

Magnet: Magnet Link

Seeds: 0

Leechers: 3

Stream: Watch Online @ Movie4u

Last Updated: 2015-09-07 14:35:24 (Update Now)

Torrent added: 2009-08-23 05:59:30



VPN For Torrents

Torrent Files List


Dirty.Sexy.Money.S02E12.WS.PDTV.XviD-HKG (US Unaired Episode title The Unexpected Arrival).avi (Size: 351.18 MB) (Files: 1)

 Dirty.Sexy.Money.S02E12.WS.PDTV.XviD-HKG (US Unaired Episode title The Unexpected Arrival).avi

351.18 MB
 

tracker

leech seeds
 

Torrent description

Screenshot : http://www.pict.com/view/811653/0/dirty
2-12 (22) "The Unexpected Arrival" Paul Redford Michael Watkins May 24, 2009 (E4 UK) June 11, 2009 (Hong Kong) August 1, 2009 (US)
Simon provides Nola with a solution to her problems. Nick finds out that Karen is pregnant with Simon Elder's baby. Andrea kicks Brian out of their house because she finds out that he had traveled to DC hoping for a tryst with his ex-wife. The Bio-fuel partnership between Tripp and Simon is finalized.

General
Complete name : Dirty.Sexy.Money.S02E12.WS.PDTV.XviD-HKG (US Unaired Episode title The Unexpected Arrival).avi
Format : AVI
Format/Info : Audio Video Interleave
File size : 351 MiB
Duration : 40mn 22s
Overall bit rate : 1 216 Kbps

Video
Format : MPEG-4 Visual
Format profile : [email protected]
Format settings, BVOP : No
Format settings, QPel : No
Format settings, GMC : No warppoints
Format settings, Matrix : Default (H.263)
Codec ID : XVID
Codec ID/Hint : XviD
Duration : 40mn 22s
Bit rate : 1 085 Kbps
Width : 624 pixels
Height : 352 pixels
Display aspect ratio : 16/9
Frame rate : 25.000 fps
Resolution : 24 bits
Colorimetry : 4:2:0
Scan type : Progressive
Bits/(Pixel*Frame) : 0.198
Stream size : 313 MiB (89%)
Writing library : XviD 1.2.1 (UTC 2008-12-04)

Audio
Format : MPEG Audio
Format version : Version 1
Format profile : Layer 3
Codec ID : 55
Codec ID/Hint : MP3
Duration : 40mn 22s
Bit rate mode : Variable
Bit rate : 122 Kbps
Nominal bit rate : 128 Kbps
Channel(s) : 2 channels
Sampling rate : 48.0 KHz
Resolution : 16 bits
Stream size : 35.3 MiB (10%)
Alignment : Aligned on interleaves
Interleave, duration : 24 ms (0.60 video frame)
Interleave, preload duration : 505 ms
Title : movie t80 2_0ch 192kbps delay 0ms
Writing library : LAME3.98r
Encoding settings : -m j -V 4 -q 3 -lowpass 17 --abr 128

related torrents

Torrent name

health leech seeds Size
 


comments (0)

Main Menu