Other

Dirty Sexy Money S02E11 WS PDTV XviD HKG (US Unaired Episode title The Convertible) avi

  • Download 5x Faster
  • Download torrent
  • Direct Download
  • Rate this torrent +  |  -

Torrent info

Name:Dirty Sexy Money S02E11 WS PDTV XviD HKG (US Unaired Episode title The Convertible) avi

Total Size: 352.05 MB

Magnet: Magnet Link

Seeds: 0

Leechers: 0

Stream: Watch Online @ Movie4u

Last Updated: 2015-09-06 13:29:25 (Update Now)

Torrent added: 2009-08-23 05:59:15




Torrent Files List


Dirty.Sexy.Money.S02E11.WS.PDTV.XviD-HKG (US Unaired Episode title The Convertible).avi (Size: 352.05 MB) (Files: 1)

 Dirty.Sexy.Money.S02E11.WS.PDTV.XviD-HKG (US Unaired Episode title The Convertible).avi

352.05 MB
 

tracker

leech seeds
 

Torrent description

Screenshot : http://www.pict.com/view/733755/0/dirty
2-11 (21) "The Convertible" Jon Harmon Feldman & Emily Whitesell Peter O'Fallon US airdate : July 25, 2009

When Nick learns that Lisa has taken KiKi away to Maryland on his weekend with her, he borrows the Darling's jet to go get her back. He is surprised to see Karen and Brian are also along for the flight. Karen is on a mission to visit a sperm bank in order to have a child and Brian has planned a secret romantic rendezvous with his ex-wife. Now a partner with Simon Elder, Tripp asks Patrick to try to reverse Congressman Charles Whatley's (John Schneider) standing against Simon's bio-fuel that Tripp had helped sway many years before. Simon tells Nola that he suspects that Jeremy's amnesia isn't real.



General
Complete name : Dirty.Sexy.Money.S02E11.WS.PDTV.XviD-HKG (US Unaired Episode title The Convertible).avi
Format : AVI
Format/Info : Audio Video Interleave
File size : 352 MiB
Duration : 41mn 32s
Overall bit rate : 1 185 Kbps
Writing application : VirtualDubMod 1.5.10.2 (build 2542/release)
Writing library : This file was made by mp3infp Ver.2.52a

Video
Format : MPEG-4 Visual
Format profile : Streaming [email protected]
Format settings, BVOP : Yes
Format settings, QPel : No
Format settings, GMC : No warppoints
Format settings, Matrix : Custom
Codec ID : XVID
Codec ID/Hint : XviD
Duration : 41mn 32s
Bit rate : 1 049 Kbps
Width : 624 pixels
Height : 352 pixels
Display aspect ratio : 16/9
Frame rate : 25.000 fps
Resolution : 24 bits
Colorimetry : 4:2:0
Scan type : Progressive
Bits/(Pixel*Frame) : 0.191
Stream size : 312 MiB (89%)
Writing library : XviD 1.2.1 (UTC 2008-12-04)

Audio
Format : MPEG Audio
Format version : Version 1
Format profile : Layer 3
Codec ID : 55
Codec ID/Hint : MP3
Duration : 41mn 32s
Bit rate mode : Variable
Bit rate : 123 Kbps
Nominal bit rate : 128 Kbps
Channel(s) : 2 channels
Sampling rate : 48.0 KHz
Resolution : 16 bits
Stream size : 36.6 MiB (10%)
Alignment : Aligned on interleaves
Interleave, duration : 24 ms (0.60 video frame)
Interleave, preload duration : 523 ms
Writing library : LAME3.98r
Encoding settings : -m j -V 4 -q 3 -lowpass 17 --abr 128

related torrents

Torrent name

health leech seeds Size
 


comments (0)

Main Menu