Other

Dirty Sexy Money S02E10 WS PDTV XviD HKG (US Unaired Episode title The Facts)

  • Download 5x Faster
  • Download torrent
  • Direct Download
  • Rate this torrent +  |  -

Torrent info

Name:Dirty Sexy Money S02E10 WS PDTV XviD HKG (US Unaired Episode title The Facts)

Total Size: 352.07 MB

Magnet: Magnet Link

Seeds: 0

Leechers: 0

Stream: Watch Online @ Movie4u

Last Updated: 2015-09-06 18:09:29 (Update Now)

Torrent added: 2009-08-23 05:58:43




Torrent Files List


Dirty.Sexy.Money.S02E10.WS.PDTV.XviD-HKG (US Unaired Episode title The Facts).avi (Size: 352.07 MB) (Files: 1)

 Dirty.Sexy.Money.S02E10.WS.PDTV.XviD-HKG (US Unaired Episode title The Facts).avi

352.07 MB
 

tracker

leech seeds
 

Torrent description

Screenshot : http://www.pict.com/view/643544/0/dirty
2-07 (17) "The Facts" Bill Chais & Jake Coburn Matthew Gross US Air date : July 18, 2009
All the Darling family members celebrate Thanksgiving away from their New York Mansion while Clark their chauffeur sets the record straight with a reporter on all the scandals and rumors. Letitia's fashion show takes place in the Darling Mansion.

Highlights Include a Ferragamo Fashion Show at the Darling Mansion. Guest Stars include Samaire Armstrong, Donna Mills and Gina Torres.

Complete name : Dirty.Sexy.Money.S02E10.WS.PDTV.XviD-HKG (US Unaired Episode title The Facts).avi
Format : AVI
Format/Info : Audio Video Interleave
File size : 352 MiB
Duration : 41mn 28s
Overall bit rate : 1 187 Kbps
Writing application : VirtualDubMod 1.5.10.2 (build 2542/release)
Writing library : VirtualDubMod build 2542/release

Video
Format : MPEG-4 Visual
Format profile : Streaming Video@L1
Format settings, BVOP : Yes
Format settings, QPel : No
Format settings, GMC : No warppoints
Format settings, Matrix : Custom
Codec ID : XVID
Codec ID/Hint : XviD
Duration : 41mn 28s
Bit rate : 1 051 Kbps
Width : 624 pixels
Height : 352 pixels
Display aspect ratio : 16/9
Frame rate : 25.000 fps
Resolution : 24 bits
Colorimetry : 4:2:0
Scan type : Progressive
Bits/(Pixel*Frame) : 0.191
Stream size : 312 MiB (89%)
Writing library : XviD 1.2.1 (UTC 2008-12-04)

Audio
Format : MPEG Audio
Format version : Version 1
Format profile : Layer 3
Codec ID : 55
Codec ID/Hint : MP3
Duration : 41mn 28s
Bit rate mode : Variable
Bit rate : 123 Kbps
Nominal bit rate : 128 Kbps
Channel(s) : 2 channels
Sampling rate : 48.0 KHz
Resolution : 16 bits
Stream size : 36.6 MiB (10%)
Alignment : Aligned on interleaves
Interleave, duration : 24 ms (0.60 video frame)
Interleave, preload duration : 539 ms
Writing library : LAME3.98r
Encoding settings : -m j -V 4 -q 3 -lowpass 17 --abr 128

related torrents

Torrent name

health leech seeds Size
 

comments (0)

Main Menu