Classic

Brahms Double Concerto, Berg Chamber Concerto (1990) [FLAC] [Stern, Ma, Abbado]

  • Download 5x Faster
  • Download torrent
  • Direct Download
  • Rate this torrent +  |  -
Brahms Double Concerto, Berg Chamber Concerto (1990) [FLAC] [Stern, Ma, Abbado]

Free and Direct Download with Usenet.nl 300GB+ free


Torrent info

Name:Brahms Double Concerto, Berg Chamber Concerto (1990) [FLAC] [Stern, Ma, Abbado]

Total Size: 350.13 MB

Magnet: Magnet Link

Seeds: 0

Leechers: 0

Stream: Watch Online @ Movie4u

Last Updated: 2011-01-08 13:32:44 (Update Now)

Torrent added: 2009-08-23 05:25:45





Torrent Files List


Torrent downloaded from Demonoid.com.txt (Size: 350.13 MB) (Files: 17)

 Torrent downloaded from Demonoid.com.txt

0.05 KB

 Exact Audio Copy - A Set-up and Ripping Guide.txt

9.44 KB

 EAC.log

3.27 KB

 Checksums.md5

1.00 KB

 CDImage.flac

287.72 MB

 CDImage (wav).cue

1.77 KB

 CDImage (flac).cue

1.77 KB

 Scans

  Tray.png

3.95 MB

  Disc.png

4.00 MB

  Cover.png

7.94 MB

  Booklet 007.png

6.47 MB

  Booklet 006.png

6.97 MB

  Booklet 005.png

6.90 MB

  Booklet 004.png

6.67 MB

  Booklet 003.png

6.82 MB

  Booklet 002.png

6.14 MB

  Booklet 001.png

6.54 MB
 

Announce URL: http://inferno.demonoid.com:3402/announce

Torrent description

Johannes Brahms (1833-1897)
Double Concerto for Violin, Cello and Orchestra in A minor, op. 102**

Alban Berg (1885-1935)
Chamber Concerto for Piano and Violin with 13 Wind Instruments*

Isaac Stern, Violin
Yo-Yo Ma, Cello
Peter Serkin, Piano

Chicago Symphony Orchestra**
Members of the London Symphony Orchestra*
Claudio Abbado

Total time: 69'28
1990 Sony Classical

Brahms   Double Concerto, Berg   Chamber Concerto (1990) [FLAC] [Stern, Ma, Abbado] preview 0

Exact Audio Copy V0.99 prebeta 4 from 23. January 2008

EAC extraction logfile from 17. December 2008, 14:03

Claudio Abbado / Brahms - Double Concerto / Berg - Chamber Concerto

Used drive : PLEXTOR CD-R PREMIUM2 Adapter: 1 ID: 1

Read mode : Secure
Utilize accurate stream : Yes
Defeat audio cache : Yes
Make use of C2 pointers : No

Read offset correction : 30
Overread into Lead-In and Lead-Out : Yes
Fill up missing offset samples with silence : Yes
Delete leading and trailing silent blocks : No
Null samples used in CRC calculations : Yes
Used interface : Installed external ASPI interface

Used output format : User Defined Encoder
Selected bitrate : 768 kBit/s
Quality : High
Add ID3 tag : No
Command line compressor : C:\My Programs\Exact Audio Copy\FLAC\FLAC.EXE
Additional command line options : -8 -V -T "ARTIST=%a" -T "TITLE=%t" -T "ALBUM=%g" -T "DATE=%y" -T "TRACKNUMBER=%n" -T "GENRE=%m" -T "COMMENT=EAC FLAC -8" %s


TOC of the extracted CD

Track | Start | Length | Start sector | End sector
---------------------------------------------------------
1 | 0:00.00 | 16:32.45 | 0 | 74444
2 | 16:32.45 | 7:22.20 | 74445 | 107614
3 | 23:54.65 | 8:41.00 | 107615 | 146689
4 | 32:35.65 | 0:29.15 | 146690 | 148879
5 | 33:05.05 | 1:11.05 | 148880 | 154209
6 | 34:16.10 | 1:33.40 | 154210 | 161224
7 | 35:49.50 | 1:20.15 | 161225 | 167239
8 | 37:09.65 | 1:04.20 | 167240 | 172059
9 | 38:14.10 | 0:44.10 | 172060 | 175369
10 | 38:58.20 | 1:24.37 | 175370 | 181706
11 | 40:22.57 | 13:10.03 | 181707 | 240959
12 | 53:32.60 | 2:41.00 | 240960 | 253034
13 | 56:13.60 | 11:24.60 | 253035 | 304394
14 | 67:38.45 | 1:50.52 | 304395 | 312696


Range status and errors

Selected range

Filename D:\Shared\Brahms - Double Concerto, Berg - Chamber Concerto (1990) [FLAC] [Stern, Ma, Abbado]\CDImage.wav

Peak level 97.7 %
Range quality 100.0 %
Test CRC 3D6D21AB
Copy CRC 3D6D21AB
Copy OK

No errors occurred


AccurateRip summary

Track 1 accurately ripped (confidence 2) [484F002B]
Track 2 accurately ripped (confidence 2) [F9900E52]
Track 3 accurately ripped (confidence 2) [021B5A09]
Track 4 accurately ripped (confidence 2) [BC8ECBED]
Track 5 accurately ripped (confidence 2) [8AAE6329]
Track 6 accurately ripped (confidence 2) [DD947ED4]
Track 7 accurately ripped (confidence 2) [BC56C474]
Track 8 accurately ripped (confidence 2) [758643EE]
Track 9 accurately ripped (confidence 2) [C7ED5BBA]
Track 10 accurately ripped (confidence 2) [9FA681E8]
Track 11 accurately ripped (confidence 2) [21007E67]
Track 12 accurately ripped (confidence 2) [EB073F94]
Track 13 accurately ripped (confidence 2) [187BB940]
Track 14 accurately ripped (confidence 2) [5476B890]

All tracks accurately ripped

End of status report

related torrents

Torrent name

health leech seeds Size
 

comments (0)

Main Menu