Classic

Beethoven Quartet for Strings op 131 & 135, [LOSSLESS FLAC] [Tntvillage Scambioetico]

  • Download 5x Faster
  • Download torrent
  • Direct Download
  • Rate this torrent +  |  -

Torrent info

Name:Beethoven Quartet for Strings op 131 & 135, [LOSSLESS FLAC] [Tntvillage Scambioetico]

Total Size: 342.72 MB

Magnet: Magnet Link

Seeds: 0

Leechers: 0

Stream: Watch Online @ Movie4u

Last Updated: 2013-02-28 15:03:45 (Update Now)

Torrent added: 2009-08-23 05:13:40



VPN For Torrents

Torrent Files List


front.jpg (Size: 342.72 MB) (Files: 5)

 front.jpg

603.83 KB

 Beethoven - String Quartets Op 131 & 135 - Bernstein, Vienna PO.log

2.90 KB

 Beethoven - String Quartets Op 131 & 135 - Bernstein, Vienna PO.flac

341.60 MB

 Beethoven - String Quartets Op 131 & 135 - Bernstein, Vienna PO.cue

2.22 KB

 back.jpg

538.17 KB
 

Announce URL:

Torrent description

Beethoven - Quartet for Strings op. 131 & 135, [LOSSLESS FLAC] [Tntvillage.Scambioetico]

Visit this link: More info on this torrent

Visit this link: All My Torrent

Ludwig van Beethoven - Quartet for Strings op. 131 & 135


[::Cover::]
Image Link

[::Album Information::]
Title: Quartett d'archi op. 131 & 135
Interpreti:Wiener Philharmoniker
Direttore:Leonard Bernstein
Years: 1992
Genre: Classica
Production: Deutsche Grammophon
Fonte:CD originale
Covers:Incluse

[::Tracklist::]version for string orchestra
01. Quartet for Strings no. 16 in F major, Op. 135 - I.Allegretto [7:16]
02. Quartet for Strings no. 16 in F major, Op. 135 - II.Vivace [3:29]
03. Quartet for Strings no. 16 in F major, Op. 135 - III.Lento ass ai e cantante tranquillo [10:01]
04. Quartet for Strings no. 16 in F major, Op. 135 - IV.Der schwer gefasste Entschluss: Grave (Muss es sein?)-Allegro (Es muss s ein)... [10:47]
05. Quartet for Strings no. 14 in C sharp minor, Op. 131 - I.Adagi o, ma non troppo e molto espressivo [8:45]
06. Quartet for Strings no. 14 in C sharp minor, Op. 131 - II.Alle gretto [3:14]
07. Quartet for Strings no. 14 in C sharp minor, Op. 131 - III.All egro moderato [0:54]
08. Quartet for Strings no. 14 in C sharp minor, Op. 131 - IV.Anda nte, ma non troppo e molto cantabile... [17:15]
09. Quartet for Strings no. 14 in C sharp minor, Op. 131 - V.Prest o [6:03]
10. Quartet for Strings no. 14 in C sharp minor, Op. 131 - VI.Adag io quasi un poco andante [2:44]
11. Quartet for Strings no. 14 in C sharp minor, Op. 131 - VII.Al legro [6:58]


[::Technical data::]
Exact Audio Copy V0.99 prebeta 3 from 28. July 2007

EAC extraction logfile from 25. June 2008, 12:10

Beethoven / String Quartets Op 131 & 135 - Bernstein, Vienna PO

Used drive : TSSTcorpCDDVDW TS-L632H Adapter: 1 ID: 0

Read mode : Secure
Utilize accurate stream : Yes
Defeat audio cache : Yes
Make use of C2 pointers : No

Read offset correction : 6
Overread into Lead-In and Lead-Out : No
Fill up missing offset samples with silence : Yes
Delete leading and trailing silent blocks : No
Null samples used in CRC calculations : Yes
Used interface : Native Win32 interface for Win NT & 2000

Used output format : User Defined Encoder
Selected bitrate : 1024 kBit/s
Quality : High
Add ID3 tag : No
Command line compressor : C:\Program Files\Exact Audio Copy\FLAC\FLAC.EXE
Additional command line options : -8 -V -T "ARTIST=%a" -T "TITLE=%t" -T "ALBUM=%g" -T "DATE=%y" -T "TRACKNUMBER=%n" -T "GENRE=%m" -T "COMMENT=%e" %s -o %d


TOC of the extracted CD

Track | Start | Length | Start sector | End sector
---------------------------------------------------------
1 | 0:00.33 | 7:16.00 | 33 | 32732
2 | 7:16.33 | 3:29.00 | 32733 | 48407
3 | 10:45.33 | 10:01.00 | 48408 | 93482
4 | 20:46.33 | 10:47.00 | 93483 | 142007
5 | 31:33.33 | 8:45.32 | 142008 | 181414
6 | 40:18.65 | 3:14.43 | 181415 | 196007
7 | 43:33.33 | 0:54.00 | 196008 | 200057
8 | 44:27.33 | 17:15.00 | 200058 | 277682
9 | 61:42.33 | 6:03.00 | 277683 | 304907
10 | 67:45.33 | 2:44.57 | 304908 | 317264
11 | 70:30.15 | 6:58.18 | 317265 | 348632


Range status and errors

Selected range

Filename C:\Users\Roberto\Desktop\Beethoven - String Quartets Op 131 & 135 - Bernstein, Vienna PO.wav

Peak level 96.5 %
Range quality 100.0 %
Test CRC B25AFD4F
Copy CRC B25AFD4F
Copy OK

No errors occurred


AccurateRip summary

Track 1 accurately ripped (confidence 5) [60AC453A]

Track 2 accurately ripped (confidence 5) [EAD3C269]
Track 3 accurately ripped (confidence 5) [AAFD43A5]
Track 4 accurately ripped (confidence 4) [1DDA7089]
Track 5 accurately ripped (confidence 5) [EBA7D575]
Track 6 accurately ripped (confidence 5) [6A149267]
Track 7 accurately ripped (confidence 5) [3719C1D1]
Track 8 accurately ripped (confidence 5) [34FCBF0D]
Track 9 accurately ripped (confidence 5) [BC9ED1E3]
Track 10 accurately ripped (confidence 5) [E4BC42AF]
Track 11 accurately ripped (confidence 4) [6F01D16C]

All tracks accurately ripped

End of status report


Visit http://www.tntvillage.scambioetico.org/

related torrents

Torrent name

health leech seeds Size
 


comments (0)

Main Menu