Classic

Bartok Solo Piano Works, Concerto 3 Dezso Ranki (1972, 1974) [FLAC]

  • Download 5x Faster
  • Download torrent
  • Direct Download
  • Rate this torrent +  |  -

Torrent info

Name:Bartok Solo Piano Works, Concerto 3 Dezso Ranki (1972, 1974) [FLAC]

Total Size: 423.41 MB

Magnet: Magnet Link

Seeds: 0

Leechers: 2

Stream: Watch Online @ Movie4u

Last Updated: 2016-01-31 13:52:39 (Update Now)

Torrent added: 2009-08-23 05:07:44



VPN For Torrents

Torrent Files List


Torrent downloaded from Demonoid.com.txt (Size: 423.41 MB) (Files: 21)

 Torrent downloaded from Demonoid.com.txt

0.05 KB

 Scans

  Tray.png

9.58 MB

  Disc.png

10.12 MB

  Booklet 012.png

10.67 MB

  Booklet 011.png

12.35 MB

  Booklet 010.png

12.37 MB

  Booklet 009.png

12.37 MB

  Booklet 007.png

12.13 MB

  Booklet 008.png

12.42 MB

  Booklet 005.png

12.38 MB

  Booklet 006.png

12.54 MB

  Booklet 003.png

12.45 MB

  Booklet 004.png

12.43 MB

  Booklet 001.png

15.22 MB

  Booklet 002.png

11.15 MB

 jiGGafellz' Step-by-Step Guide to Secure CD Ripping w-Exact Audio Copy.url

0.18 KB

 info.txt

1.29 KB

 CD Image.flac

255.21 MB

 EAC.log

3.72 KB

 CD Image (flac).cue

3.05 KB

 CD Image (wav).cue

3.05 KB
 

tracker

leech seeds
 

Torrent description

Béla Bartók

Allegro barbaro, Sz49;
3 Burlesques, Sz47;
Hungarian Folktunes, Sz66;
Romanian Christmas Carols, Sz57;
6 Romanian Folkdances, Sz56;
Sonatina, Sz55;
Suite, Sz62, Op. 14;
Concerto for Piano and Orchestra No 3, Sz119.

Dezsö Ránki, piano
Hungarian State Orchestra
János Ferencsik.

Hungaroton HCD31036 (65 minutes : ADD)

GRAMOPHONE March 1989
Ranki's account of the Third Concerto and his solo recital, transferred complete except for the First Term at the Piano, drew high praise from LS on their first appearance and they have long been favourites of mine. They vindicate a point of view often expressed, that Bartok's piano music is often played far too aggressively; certainly after hearing the poised, natural flow of Ranki's Sonatina and Romanian folkdances, his energetic but not pulverized Allegro Barbaro, his deft characterization of the fine Burlesques and Suite, it is easy to agree. He brings a luminous quality to the Concerto, too, which provides a valid alternative to the more extrovert readings of Ashkenazy (Decca) and Kocsis (Philips). In the adagio religioso especially, I would prefer Ranki to either of those distinguished rivals. There is a fair amount of hiss on the Hungaroton pressing, but in compensation the piano itself is an instrument of the highest quality.
DJF

Exact Audio Copy V0.99 prebeta 4 from 23. January 2008

EAC extraction logfile from 25. June 2008, 20:02

Dezso Ranki / Bartok - Solo Piano Works, Piano Concerto No. 3

Used drive : HL-DT-STDVD-ROM GDR8163B Adapter: 1 ID: 1

Read mode : Secure
Utilize accurate stream : Yes
Defeat audio cache : Yes
Make use of C2 pointers : No

Read offset correction : 102
Overread into Lead-In and Lead-Out : No
Fill up missing offset samples with silence : Yes
Delete leading and trailing silent blocks : No
Null samples used in CRC calculations : Yes
Used interface : Installed external ASPI interface

Used output format : Internal WAV Routines
Sample format : 44.100 Hz; 16 Bit; Stereo


TOC of the extracted CD

Track | Start | Length | Start sector | End sector
---------------------------------------------------------
1 | 0:00.25 | 2:40.65 | 25 | 12089
2 | 2:41.15 | 2:09.37 | 12090 | 21801
3 | 4:50.52 | 2:21.23 | 21802 | 32399
4 | 7:12.00 | 2:28.32 | 32400 | 43531
5 | 9:40.32 | 1:42.30 | 43532 | 51211
6 | 11:22.62 | 0:45.70 | 51212 | 54656
7 | 12:08.57 | 1:47.60 | 54657 | 62741
8 | 13:56.42 | 1:07.60 | 62742 | 67826
9 | 15:04.27 | 0:27.10 | 67827 | 69861
10 | 15:31.37 | 0:55.18 | 69862 | 74004
11 | 16:26.55 | 0:39.62 | 74005 | 76991
12 | 17:06.42 | 0:28.00 | 76992 | 79091
13 | 17:34.42 | 0:52.58 | 79092 | 83049
14 | 18:27.25 | 4:34.27 | 83050 | 103626
15 | 23:01.52 | 6:10.50 | 103627 | 131426
16 | 29:12.27 | 2:03.40 | 131427 | 140691
17 | 31:15.67 | 1:54.60 | 140692 | 149301
18 | 33:10.52 | 2:06.30 | 149302 | 158781
19 | 35:17.07 | 3:06.73 | 158782 | 172804
20 | 38:24.05 | 1:03.57 | 172805 | 177586
21 | 39:27.62 | 1:06.30 | 177587 | 182566
22 | 40:34.17 | 1:31.08 | 182567 | 189399
23 | 42:05.25 | 7:14.00 | 189400 | 221949
24 | 49:19.25 | 9:36.12 | 221950 | 265161
25 | 58:55.37 | 6:24.50 | 265162 | 294011


Range status and errors

Selected range

Filename D:\Classical\Bartok Solo Piano Works, Concerto 3 - Dezso Ranki (1972, 1974) [FLAC]\CD Image.wav

Peak level 89.8 %
Range quality 100.0 %
Test CRC FA5E7921
Copy CRC FA5E7921
Copy OK

No errors occurred

End of status report

related torrents

Torrent name

health leech seeds Size
 


comments (0)

Main Menu