Classic

Andre Isoir L'Orgue Francais au Grand Siecle (2004 Calliope)

  • Download 5x Faster
  • Download torrent
  • Direct Download
  • Rate this torrent +  |  -
Andre Isoir L'Orgue Francais au Grand Siecle (2004 Calliope)

Free and Direct Download with Usenet.nl 300GB+ free


Torrent info

Name:Andre Isoir L'Orgue Francais au Grand Siecle (2004 Calliope)

Total Size: 205.18 MB

Magnet: Magnet Link

Seeds: 0

Leechers: 6

Stream: Watch Online @ Movie4u

Last Updated: 2010-05-25 07:32:20 (Update Now)

Torrent added: 2009-08-23 04:45:21





Torrent Files List


info.txt (Size: 205.18 MB) (Files: 14)

 info.txt

1.11 KB

 HR covers

  inlay.jpg

3.24 MB

  ininlay.jpg

1.53 MB

  in3.jpg

1.12 MB

  in2.jpg

1.07 MB

  in1.jpg

881.72 KB

  front full.jpg

3.81 MB

  disc.jpg

527.00 KB

 front.jpg

9.19 KB

 cd.jpg

14.70 KB

 back.jpg

18.38 KB

 Andre Isoir - L'Orgue Francais au Grand Siecle.wv.cue

3.12 KB

 Andre Isoir - L'Orgue Francais au Grand Siecle.log

3.14 KB

 Andre Isoir - L'Orgue Francais au Grand Siecle (2004. Calliope).iso.wv

192.98 MB
 

Announce URL: http://open.tracker.thepiratebay.org/announce

Torrent description

Artist...............: Andre Isoir (orgue de Saint-Jacques de Compiegne)
Album................: L\'orgue francais au Grand Siecle
Composer................: Andre Raison, Jacques Boyvin, Guillaume-Gabriel Nivers
Genre................: Classical
Source...............: CD. Calliope CAL 4906
Year.................: 2004 (1971)
Format................: ISO-WavPack(WV)
Incl.............: LOG, CUE, COVERS COMPLETE
Playing Time.........: 42:08
Total Size...........: 192 MB

01. Andre Raison: Offerte du 5e ton... 07:13
02. Jacques Boyvin: Suites du 1er ton (2e livre) 1 01:20
03. Jacques Boyvin: Suites du 1er ton (2e livre) 2 02:00
04. Jacques Boyvin: Suites du 1er ton (2e livre) 3 01:40
05. Jacques Boyvin: Suites du 1er ton (2e livre) 4 01:35
06. Jacques Boyvin: Suites du 1er ton (2e livre) 5 01:56
07. Jacques Boyvin: Suites du 1er ton (2e livre) 6 04:33
08. Jacques Boyvin: Suites du 4e ton (2e livre) 1 01:15
09. Jacques Boyvin: Suites du 4e ton (2e livre) 2 02:28
10. Jacques Boyvin: Suites du 4e ton (2e livre) 3 01:39
11. Jacques Boyvin: Suites du 4e ton (2e livre) 4 01:38
12. Jacques Boyvin: Suites du 4e ton (2e livre) 5 02:13
13. Jacques Boyvin: Suites du 4e ton (2e livre) 6 01:44
14. Guillaume-Gabriel Nivers: Suite du 1er ton 1 02:36
15. Guillaume-Gabriel Nivers: Suite du 1er ton 2 01:01
16. Guillaume-Gabriel Nivers: Suite du 1er ton 3 00:59
17. Guillaume-Gabriel Nivers: Suite du 1er ton 4 00:59
18. Guillaume-Gabriel Nivers: Suite du 1er ton 5 02:37
19. Guillaume-Gabriel Nivers: Suite du 1er ton 6 02:15

Exact Audio Copy V0.99 prebeta 4 from 23. January 2008

EAC extraction logfile from 27. April 2008, 23:56

Andre Isoir / L\'Orgue Francais au Grand Siecle

Used drive : PLEXTOR - DVDR PX-810SA Adapter: 3 ID: 1

Read mode : Secure
Utilize accurate stream : Yes
Defeat audio cache : Yes
Make use of C2 pointers : No

Read offset correction : 48
Overread into Lead-In and Lead-Out : No
Fill up missing offset samples with silence : Yes
Delete leading and trailing silent blocks : No
Null samples used in CRC calculations : Yes
Used interface : Installed external ASPI interface

Used output format : Internal WAV Routines
Sample format : 44.100 Hz; 16 Bit; Stereo


TOC of the extracted CD

Track | Start | Length | Start sector | End sector
---------------------------------------------------------
1 | 0:00.33 | 7:13.62 | 33 | 32569
2 | 7:14.20 | 1:20.08 | 32570 | 38577
3 | 8:34.28 | 2:00.54 | 38578 | 47631
4 | 10:35.07 | 1:40.41 | 47632 | 55172
5 | 12:15.48 | 1:35.18 | 55173 | 62315
6 | 13:50.66 | 1:56.12 | 62316 | 71027
7 | 15:47.03 | 4:33.05 | 71028 | 91507
8 | 20:20.08 | 1:15.67 | 91508 | 97199
9 | 21:36.00 | 2:28.70 | 97200 | 108369
10 | 24:04.70 | 1:39.06 | 108370 | 115800
11 | 25:44.01 | 1:38.29 | 115801 | 123179
12 | 27:22.30 | 2:13.04 | 123180 | 133158
13 | 29:35.34 | 1:44.26 | 133159 | 140984
14 | 31:19.60 | 2:36.40 | 140985 | 152724
15 | 33:56.25 | 1:01.00 | 152725 | 157299
16 | 34:57.25 | 0:59.11 | 157300 | 161735
17 | 35:56.36 | 0:59.43 | 161736 | 166203
18 | 36:56.04 | 2:37.53 | 166204 | 178031
19 | 39:33.57 | 2:15.69 | 178032 | 188225


Range status and errors

Selected range

Filename D:\\Andre Isoir - L\'Orgue Francais au Grand Siecle\\Andre Isoir - L\'Orgue Francais au Grand Siecle.wav

Peak level 100.0 %
Range quality 100.0 %
Test CRC 019126BD
Copy CRC 019126BD
Copy OK

No errors occurred


AccurateRip summary

Track 1 not present in database
Track 2 not present in database
Track 3 not present in database
Track 4 not present in database
Track 5 not present in database
Track 6 not present in database
Track 7 not present in database
Track 8 not present in database
Track 9 not present in database
Track 10 not present in database
Track 11 not present in database
Track 12 not present in database
Track 13 not present in database
Track 14 not present in database
Track 15 not present in database
Track 16 not present in database
Track 17 not present in database
Track 18 not present in database
Track 19 not present in database

None of the tracks are present in the AccurateRip database

End of status report

related torrents

Torrent name

health leech seeds Size
 

comments (0)

Main Menu