Classic

Andre Isoir J S Bach The World of Chorale 2CD 1989

  • Download 5x Faster
  • Download torrent
  • Direct Download
  • Rate this torrent +  |  -
Andre Isoir J S Bach The World of Chorale 2CD 1989

Free and Direct Download with Usenet.nl 300GB+ free


Torrent info

Name:Andre Isoir J S Bach The World of Chorale 2CD 1989

Total Size: 653.06 MB

Magnet: Magnet Link

Seeds: 0

Leechers: 1

Stream: Watch Online @ Movie4u

Last Updated: 2016-01-28 23:31:20 (Update Now)

Torrent added: 2009-08-23 04:45:19





Torrent Files List


covers (Size: 653.06 MB) (Files: 14)

 covers

  front.jpg

56.14 KB

  back.jpg

797.53 KB

  b06.jpg

493.40 KB

  b05.jpg

672.37 KB

  b04.jpg

621.88 KB

  b03.jpg

849.11 KB

  b02.jpg

464.03 KB

  b01.jpg

1.46 MB

 Andre Isoir - J.S. Bach - The World of Chorale II.wv.cue

2.61 KB

 Andre Isoir - J.S. Bach - The World of Chorale II.log

2.96 KB

 Andre Isoir - J.S. Bach - The World of Chorale II.(1989.Calliope).iso.wv

310.53 MB

 Andre Isoir - J.S. Bach - The World of Chorale I.wv.cue

2.80 KB

 Andre Isoir - J.S. Bach - The World of Chorale I.log

2.96 KB

 Andre Isoir - J.S. Bach - The World of Chorale I.(1989.Calliope).iso.wv

337.20 MB
 

tracker

leech seeds
 

Torrent description

Andre Isoir
J.S. Bach - The World of Chorale. 2CD, 1989
Calliope / CAL 9706-07
Classical, Organ
EAC - LOG, CUE, WavPack - COVERS COMPLETE, ISO-WV

found in net, taged, embedded, repacked

J.S. Bach - The World of Chorale I:
1. Prelude and Fugue in A minorBWV 543 . . . . . . . . . . . . . .08:31
2. Fuga super \'Allein Gott in der Hoh\' sei Ehr\' BWV 716. . . . . .02:05
3. Fughetta \'Das Jesulein soll doch mein Trost\' BWV 702. . . . . .01:32
4. Fantasia (piece d\'orgue) in G major BWV 572 - Tres vivement . .01:09
5. Fantasia (piece d\'orgue) in G major BWV 572 - Grave . . . . . .05:59
6. Fantasia (piece d\'orgue) in G major BWV 572 - Lentement . . . .02:07
7. Chorale \'Ich hab\' mein Sach\' Gott heimgestellt\' BWV 708 . . . .01:00
8. Same Choral Fugue and harmonization BWV 707a et 707b. . . . . .05:06
9. Chorale \'Ein feste Burg ist unser Gott\' BWV 720 . . . . . . . .03:13
10. Fugue in B minor on a theme by Corelli BWV 579. . . . . . . . .04:55
11. Chorale \'Liebster Jesu, wir sind hier\' (orne) BWV 731 . . . . .02:36
12. Chorale \'Liebster Jesu, wir sind hier\' (alio modo) BWV 730. . .01:32
13. Double Fugue in C minor on a theme by Legrenzi BWV 574. . . . .06:04
14. Chorale \'Christus, der uns selig macht\' BWV 747 . . . . . . . .04:45
15. Alla breve in D major BWV 589 . . . . . . . . . . . . . . . . .04:13
16. Prelude and Fugue in E minor \'Little\' BWV 533 . . . . . . . . .06:30
17. Fuga sopra il magnificat BWV 733. . . . . . . . . . . . . . . .03:45

J.S. Bach - The World of Chorale II:
1. Prelude and Fugue in D major BWV 532 . . . . . . . . . . . . . .10:06
2. Chorale \'Christ lag in Todesbanden\' BWV 695. . . . . . . . . . .03:15
3. Chorale \'Liebster Jesu, wir sind hier\' BWV 706,a . . . . . . . .01:54
4. Fughetta super \'Christum wir sollen loben schon\' BWV 696 . . . .01:24
5. Prelude and Fugue in F minor BWV 534 . . . . . . . . . . . . . .08:02
6. Fughetta super \'Gottes Sohn ist kommen\' BWV 703. . . . . . . . .00:51
7. Chorale \'Wo soll ich fliehen hin\' BWV 694. . . . . . . . . . . .03:10
8. Chorale \'Wir glauben all\'an einem Gott, Schopfer\' BWV 765. . . .03:05
9. Prelude and Fugue in G minor BWV 535 . . . . . . . . . . . . . .06:50
10. Fughetta super \'Herr Christ, der ein\'ge Gottes Sohn\' BWV 698 . .01:07
11. Fantasia in C minor BWV 562. . . . . . . . . . . . . . . . . . .05:33
12. Fughetta super \'Nun komm\' der Heiden Heiland\' BWV 699. . . . . .01:02
13. Fughetta super \'Gelobet seist du, Jesu Christ\' BWV 697 . . . . .00:49
14. Choral \'Ach Gott und Herr\' BWV 714 . . . . . . . . . . . . . . .03:56
15. Fantasia sopra \'Jesu, meine Freude\' BWV 713. . . . . . . . . . .04:37
16. Choral \'Herr Christ, der einig\' Gottes Sohn\' Anh. 55 . . . . . .01:52
17. Fantasia and Fugue in C minor BWV 537. . . . . . . . . . . . . .08:11

Exact Audio Copy V0.99 prebeta 4 from 23. January 2008

EAC extraction logfile from 19. May 2008, 7:24

Andre Isoir / J.S. Bach - The World of Chorale I

Used drive : LG Electronics - DVD+RW GCA-4040 Adapter: 2 ID: 0

Read mode : Secure
Utilize accurate stream : Yes
Defeat audio cache : Yes
Make use of C2 pointers : No

Read offset correction : 12
Overread into Lead-In and Lead-Out : No
Fill up missing offset samples with silence : Yes
Delete leading and trailing silent blocks : No
Null samples used in CRC calculations : Yes
Used interface : Native Win32 interface for Win NT & 2000

Used output format : Internal WAV Routines
Sample format : 44.100 Hz; 16 Bit; Stereo


TOC of the extracted CD

Track | Start | Length | Start sector | End sector
---------------------------------------------------------
1 | 0:00.00 | 8:31.72 | 0 | 38396
2 | 8:31.72 | 2:05.48 | 38397 | 47819
3 | 10:37.45 | 1:32.50 | 47820 | 54769
4 | 12:10.20 | 1:09.12 | 54770 | 59956
5 | 13:19.32 | 5:59.10 | 59957 | 86891
6 | 19:18.42 | 2:07.10 | 86892 | 96426
7 | 21:25.52 | 1:00.60 | 96427 | 100986
8 | 22:26.37 | 5:06.15 | 100987 | 123951
9 | 27:32.52 | 3:13.45 | 123952 | 138471
10 | 30:46.22 | 4:55.70 | 138472 | 160666
11 | 35:42.17 | 2:36.40 | 160667 | 172406
12 | 38:18.57 | 1:32.50 | 172407 | 179356
13 | 39:51.32 | 6:04.73 | 179357 | 206729
14 | 45:56.30 | 4:45.37 | 206730 | 228141
15 | 50:41.67 | 4:13.68 | 228142 | 247184
16 | 54:55.60 | 6:30.22 | 247185 | 276456
17 | 61:26.07 | 3:45.55 | 276457 | 293386


Range status and errors

Selected range

Filename C:\\Isoir - J.S. Bach - The World of Chorale 1\\Andre Isoir - J.S. Bach - The World of Chorale I.wav

Peak level 98.9 %
Range quality 100.0 %
Test CRC A383DF84
Copy CRC A383DF84
Copy OK

No errors occurred


AccurateRip summary

Track 1 not present in database
Track 2 not present in database
Track 3 not present in database
Track 4 not present in database
Track 5 not present in database
Track 6 not present in database
Track 7 not present in database
Track 8 not present in database
Track 9 not present in database
Track 10 not present in database
Track 11 not present in database
Track 12 not present in database
Track 13 not present in database
Track 14 not present in database
Track 15 not present in database
Track 16 not present in database
Track 17 not present in database

None of the tracks are present in the AccurateRip database

End of status report



Exact Audio Copy V0.99 prebeta 4 from 23. January 2008

EAC extraction logfile from 19. May 2008, 12:29

Andre Isoir / J.S. Bach - The World of Chorale II

Used drive : LG Electronics - DVD+RW GCA-4040 Adapter: 2 ID: 0

Read mode : Secure
Utilize accurate stream : Yes
Defeat audio cache : Yes
Make use of C2 pointers : No

Read offset correction : 12
Overread into Lead-In and Lead-Out : No
Fill up missing offset samples with silence : Yes
Delete leading and trailing silent blocks : No
Null samples used in CRC calculations : Yes
Used interface : Native Win32 interface for Win NT & 2000

Used output format : Internal WAV Routines
Sample format : 44.100 Hz; 16 Bit; Stereo


TOC of the extracted CD

Track | Start | Length | Start sector | End sector
---------------------------------------------------------
1 | 0:00.00 | 10:06.40 | 0 | 45489
2 | 10:06.40 | 3:15.40 | 45490 | 60154
3 | 13:22.05 | 1:54.10 | 60155 | 68714
4 | 15:16.15 | 1:24.20 | 68715 | 75034
5 | 16:40.35 | 8:02.37 | 75035 | 111221
6 | 24:42.72 | 0:51.15 | 111222 | 115061
7 | 25:34.12 | 3:10.10 | 115062 | 129321
8 | 28:44.22 | 3:05.50 | 129322 | 143246
9 | 31:49.72 | 6:50.20 | 143247 | 174016
10 | 38:40.17 | 1:07.73 | 174017 | 179114
11 | 39:48.15 | 5:33.60 | 179115 | 204149
12 | 45:22.00 | 1:02.65 | 204150 | 208864
13 | 46:24.65 | 0:49.57 | 208865 | 212596
14 | 47:14.47 | 3:56.38 | 212597 | 230334
15 | 51:11.10 | 4:37.00 | 230335 | 251109
16 | 55:48.10 | 1:52.42 | 251110 | 259551
17 | 57:40.52 | 8:11.23 | 259552 | 296399


Range status and errors

Selected range

Filename C:\\Isoir - J.S. Bach - The World of Chorale 2\\Andre Isoir - J.S. Bach - The World of Chorale II.wav

Peak level 98.4 %
Range quality 100.0 %
Test CRC DC7D6109
Copy CRC DC7D6109
Copy OK

No errors occurred


AccurateRip summary

Track 1 not present in database
Track 2 not present in database
Track 3 not present in database
Track 4 not present in database
Track 5 not present in database
Track 6 not present in database
Track 7 not present in database
Track 8 not present in database
Track 9 not present in database
Track 10 not present in database
Track 11 not present in database
Track 12 not present in database
Track 13 not present in database
Track 14 not present in database
Track 15 not present in database
Track 16 not present in database
Track 17 not present in database

None of the tracks are present in the AccurateRip database

End of status report

related torrents

Torrent name

health leech seeds Size
 

comments (0)

Main Menu