Classic

Andre Isoir Clerambaut Corrette Mage d'Andrieu

  • Download 5x Faster
  • Download torrent
  • Direct Download
  • Rate this torrent +  |  -
Andre Isoir Clerambaut Corrette Mage d'Andrieu

Free and Direct Download with Usenet.nl 300GB+ free


Torrent info

Name:Andre Isoir Clerambaut Corrette Mage d'Andrieu

Total Size: 361.75 MB

Magnet: Magnet Link

Seeds: 0

Leechers: 4

Stream: Watch Online @ Movie4u

Last Updated: 2010-10-06 18:35:59 (Update Now)

Torrent added: 2009-08-23 04:45:18





Torrent Files List


Andre.Isoir.-.Clerambaut-Corrette-Mage-d'Andrieu.(1998).by.server.alliance.iso.wv (Size: 361.75 MB) (Files: 11)

 Andre.Isoir.-.Clerambaut-Corrette-Mage-d'Andrieu.(1998).by.server.alliance.iso.wv

356.88 MB

 Andre Isoir - Clerambaut - Corrette - Mage - d'Andrieu.wv.cue

4.79 KB

 Andre Isoir - Clerambaut - Corrette - Mage - d'Andrieu.log

4.29 KB

 back.jpg

23.64 KB

 cd.jpg

11.40 KB

 front.jpg

25.25 KB

 scans

  01.jpg

1.14 MB

  02.jpg

1.26 MB

  back1.jpg

1.09 MB

  back2.jpg

1.12 MB

  disc.jpg

205.53 KB
 

Announce URL: http://open.tracker.thepiratebay.org/announce

Torrent description

Andre Isoir
Clerambaut - Corrette - Mage - d\'Andrieu, 1988
Calliope / CAL 6915
Classical, Organ
eac-wv-tags-scans-embedded.iso.wv

TRACKLIST
1. Clerambaut - Grand Plein Jeu . . . . . . . . . . . . . . . . . . . . .02:40
2. Clerambaut - Fugue . . . . . . . . . . . . . . . . . . . . . . . . . .04:01
3. Clerambaut - Duo . . . . . . . . . . . . . . . . . . . . . . . . . . .01:28
4. Clerambaut - Trio. . . . . . . . . . . . . . . . . . . . . . . . . . .02:21
5. Clerambaut - Basse Et Dessus De Trompette. . . . . . . . . . . . . . .02:05
6. Clerambaut: Suite du premier ton - Recit De Cromorne . . . . . . . . .03:53
7. Clerambaut: Suite du premier ton - Dialogue Sur Les Grands Jeux. . . .02:25
8. Clerambaut: Suite du deuxieme ton - Plein Jeu. . . . . . . . . . . . .02:42
9. Clerambaut: Suite du deuxieme ton - Duo. . . . . . . . . . . . . . . .01:42
10. Clerambaut: Suite du deuxieme ton - Trio . . . . . . . . . . . . . . .02:57
11. Clerambaut: Suite du deuxieme ton - Basse De Cromorne. . . . . . . . .01:47
12. Clerambaut: Suite du deuxieme ton - Flutes . . . . . . . . . . . . . .02:59
13. Clerambaut: Suite du deuxieme ton - Recit De Nazard. . . . . . . . . .03:02
14. Clerambaut: Suite du deuxieme ton - Caprice Sur Les Grands Jeux. . . .02:33
15. Corrette - Dialogue De Voix Humaine. . . . . . . . . . . . . . . . . .01:26
16. Corrette - Dessus De Tierce Par Accords. . . . . . . . . . . . . . . .02:17
17. Corrette - Dialogue A Deux Choeurs . . . . . . . . . . . . . . . . . .01:24
18. Mage: Premier livre d\'orgue - Plein Jeu. . . . . . . . . . . . . . . .02:45
19. Mage: Premier livre d\'orgue - Fugue. . . . . . . . . . . . . . . . . .02:38
20. Mage: Premier livre d\'orgue - Trio . . . . . . . . . . . . . . . . . .02:26
21. Mage: Premier livre d\'orgue - Tierce En Tallle . . . . . . . . . . . .03:56
22. Mage: Premier livre d\'orgue - Basse De Trompette . . . . . . . . . . .02:16
23. Mage: Premier livre d\'orgue - Recit. . . . . . . . . . . . . . . . . .02:55
24. Mage: Premier livre d\'orgue - Duo. . . . . . . . . . . . . . . . . . .02:00
25. Mage: Premier livre d\'orgue - Grand Jeu. . . . . . . . . . . . . . . .03:35
26. d\'Andrieu: Livre d\'orgue (extraits) - Plein Jeu Du Premier Ton . . . .01:46
27. d\'Andrieu: Livre d\'orgue (extraits) - Fugue Sur I\'ave Maris Stella . .02:04
28. d\'Andrieu: Livre d\'orgue (extraits) - Basse Et Dessue De Trompette . .01:22
29. d\'Andrieu: Livre d\'orgue (extraits) - Muzete . . . . . . . . . . . . .02:03
30. d\'Andrieu: Livre d\'orgue (extraits) - Offertoire . . . . . . . . . . .04:44
31. d\'Andrieu: Livre d\'orgue (extraits) - Duo En Cor De Chasse . . . . . .00:53

Exact Audio Copy V0.99 prebeta 4 from 23. January 2008

EAC extraction logfile from 29. April 2008, 11:24

Andre Isoir / Clerambaut - Corrette - Mage - d\'Andrieu

Used drive : LITE-ON DVDRW SOHW-1693S Adapter: 3 ID: 0

Read mode : Secure
Utilize accurate stream : Yes
Defeat audio cache : Yes
Make use of C2 pointers : No

Read offset correction : 12
Overread into Lead-In and Lead-Out : No
Fill up missing offset samples with silence : Yes
Delete leading and trailing silent blocks : No
Null samples used in CRC calculations : Yes
Used interface : Installed external ASPI interface

Used output format : Internal WAV Routines
Sample format : 44.100 Hz; 16 Bit; Stereo


TOC of the extracted CD

Track | Start | Length | Start sector | End sector
---------------------------------------------------------
1 | 0:00.39 | 2:40.04 | 39 | 12042
2 | 2:40.43 | 4:01.46 | 12043 | 30163
3 | 6:42.14 | 1:28.15 | 30164 | 36778
4 | 8:10.29 | 2:21.23 | 36779 | 47376
5 | 10:31.52 | 2:05.58 | 47377 | 56809
6 | 12:37.35 | 3:53.21 | 56810 | 74305
7 | 16:30.56 | 2:25.32 | 74306 | 85212
8 | 18:56.13 | 2:42.35 | 85213 | 97397
9 | 21:38.48 | 1:42.06 | 97398 | 105053
10 | 23:20.54 | 2:57.02 | 105054 | 118330
11 | 26:17.56 | 1:47.15 | 118331 | 126370
12 | 28:04.71 | 2:59.07 | 126371 | 139802
13 | 31:04.03 | 3:02.62 | 139803 | 153514
14 | 34:06.65 | 2:33.21 | 153515 | 165010
15 | 36:40.11 | 1:26.69 | 165011 | 171529
16 | 38:07.05 | 2:17.13 | 171530 | 181817
17 | 40:24.18 | 1:24.46 | 181818 | 188163
18 | 41:48.64 | 2:45.72 | 188164 | 200610
19 | 44:34.61 | 2:38.39 | 200611 | 212499
20 | 47:13.25 | 2:26.51 | 212500 | 223500
21 | 49:40.01 | 3:56.69 | 223501 | 241269
22 | 53:36.70 | 2:16.05 | 241270 | 251474
23 | 55:53.00 | 2:55.71 | 251475 | 264670
24 | 58:48.71 | 2:00.22 | 264671 | 273692
25 | 60:49.18 | 3:35.63 | 273693 | 289880
26 | 64:25.06 | 1:46.26 | 289881 | 297856
27 | 66:11.32 | 2:04.57 | 297857 | 307213
28 | 68:16.14 | 1:22.54 | 307214 | 313417
29 | 69:38.68 | 2:03.66 | 313418 | 322708
30 | 71:42.59 | 4:44.09 | 322709 | 344017
31 | 76:26.68 | 0:53.08 | 344018 | 348000


Range status and errors

Selected range

Filename D:\\Clerambault - Les Deux Suites\\Andre Isoir - Clerambaut - Corrette - Mage - d\'Andrieu.wav

Peak level 99.9 %
Range quality 100.0 %
Test CRC 083D2A09
Copy CRC 083D2A09
Copy OK

No errors occurred


AccurateRip summary

Track 1 not present in database
Track 2 not present in database
Track 3 not present in database
Track 4 not present in database
Track 5 not present in database
Track 6 not present in database
Track 7 not present in database
Track 8 not present in database
Track 9 not present in database
Track 10 not present in database
Track 11 not present in database
Track 12 not present in database
Track 13 not present in database
Track 14 not present in database
Track 15 not present in database
Track 16 not present in database
Track 17 not present in database
Track 18 not present in database
Track 19 not present in database
Track 20 not present in database
Track 21 not present in database
Track 22 not present in database
Track 23 not present in database
Track 24 not present in database
Track 25 not present in database
Track 26 not present in database
Track 27 not present in database
Track 28 not present in database
Track 29 not present in database
Track 30 not present in database
Track 31 not present in database

None of the tracks are present in the AccurateRip database

End of status report

related torrents

Torrent name

health leech seeds Size
 

comments (0)

Main Menu