Horror

Slumber Party Massacre 3 (1990) 1337x By {Noir}

  • Download 5x Faster
  • Download torrent
  • Direct Download
  • Rate this torrent +  |  -
Slumber Party Massacre 3 (1990) 1337x By {Noir}

Anonymous and Direct Download 300GB+ free


Torrent info

Name:Slumber Party Massacre 3 (1990) 1337x By {Noir}

Total Size: 799.61 MB

Magnet: Magnet Link

Seeds: 0

Leechers: 0

Stream: Watch Online @ Movie4u

Last Updated: 2016-11-20 16:16:10 (Update Now)

Torrent added: 2008-07-23 01:27:34




Torrent Files List


1337x.Org.txt (Size: 799.61 MB) (Files: 3)

 1337x.Org.txt

0.03 KB

 Noir.nfo

4.58 KB

 Slumber Party Massacre 3 (1990) [1337x] By {Noir}.avi

799.61 MB
 

tracker

leech seeds
 

Torrent description

Slumber Party Massacre 3 (1990) 1337x By {Noir} preview 0

Screenshots

Slumber Party Massacre 3 (1990) 1337x By {Noir} preview 1

Slumber Party Massacre 3 (1990) 1337x By {Noir} preview 2

Slumber Party Massacre 3 (1990) 1337x By {Noir} preview 3

Slumber Party Massacre 3 (1990) 1337x By {Noir} preview 4

_____________________________________________________________________________
▓▓▓▓▓▓
▓█████▓ ▓▓▓▓
▓██████▓ ▓▓███▓
▓▓██████▓ ▓████▓▓▓▓▓▓
▓██████▓ ▓██▒█▓▓███▓▓ ▓▓▓▓▓▓▓▓▓▓▓▓▓
▓██▒████▓ ▓██▒█▓██████▓▓███▓███▓███▓▓
▓██▒▒████▓ ▓██▒███▒▒▒▒██▓████████████▓
▓██▒▒▒▒███▓ ▓██▒██▒▒▒▒▒▒███▒▒▒██▒█▒▒▒██▓▓
▓██▒▒██▒▒██▓▓██▒██▒▒█▒▒▒▒███████▒▒▒▒▒▒██▓
▓██▒▒███▒▒██▓██▒██▒█▓█▒▒▒██▒▒▒██▒▒██▒▒▒█▓
▓██▒▒████▒▒████▒██▒█▓█▒▒▒██▒▒▒██▒▒███▒██▓
▓██▒▒█▓███▒▒███▒██▒▒█▒▒▒▒██▒▒▒██▒▒██████▓
▓██▒▒█▓▓███▒▒██▒██▒▒▒▒▒▒▒██▒▒▒██▒▒██▓███▓
▓▓██▒▒█▓ ▓███▒▒█▒██▒▒▒▒▒▒▒███████▒▒██▓▓▓▓▓
▓▓███▒▒█▓ ▓███▒▒▒███▒▒▒▒▒██▓▓▓▓██▒▒██▓
▓████▒▒█▓ ▓███▒▒█████████▓▓ ▓██▒▒██▓
▓████▒▒█▓ ▓███▒█▓██████▓▓▓ ▓██████▓
▓███████▓ ▓▓████▓▓▓▓▓▓▓▓ ▓▓▓▓▓▓▓▓
▓▓▓▓▓▓▓▓▓ ▓▓▓▓▓
_____________________________________________________________________________



*******************************************************************************
Slumber Party Massacre 3 (1990)
*******************************************************************************

-------------------------------------------------------------------------------
General Information
-------------------------------------------------------------------------------
Type : Movie
Format : AVI
Format/Info : Audio Video Interleave
File size : 800 MiB
Duration : 1h 24mn
Source : Dvd NTSC
Genre : Horror
IMDB Link : http://www.imdb.com/title/tt0100639/
Rating : 2.2/10

Video
Format : MPEG-4 Visual
Format profile : Streaming [email protected]
Format settings, BVOP : Yes
Format settings, QPel : No
Format settings, GMC : No warppoints
Format settings, Matrix : Default
Muxing mode : Packet Bitstream
Codec ID : XVID
Codec ID/Hint : XviD
Duration : 1h 24mn
Bit rate : 1191 Kbps
Width : 544 pixels
Height : 400 pixels
Display aspect ratio : 4/3
Frame rate : 23.976 fps
Resolution : 8 bits
Colorimetry : 4:2:0
Scan type : Progressive
Bits/(Pixel*Frame) : 0.228
Stream size : 717 MiB (90%)

Audio
Format : MPEG Audio
Format version : Version 1
Format profile : Layer 3
Codec ID : 55
Codec ID/Hint : MP3
Duration : 1h 24mn
Bit rate mode : Constant
Bit rate : 128 Kbps
Minimum bit rate : 128 Kbps
Channel(s) : 2 channels
Sampling rate : 48.0 KHz
Resolution : 16 bits
Stream size : 77.0 MiB (10%)
Alignment : Aligned on interleaves
Interleave, duration : 42 ms (1.00 video frame)
Interleave, preload duration : 504 ms
Writing library : LAME3.97
Encoding settings : CBR
-------------------------------------------------------------------------------
Description
-------------------------------------------------------------------------------
School\'s out - everyone heads to the beach - a typical vacation. However,
a mysterious murderer armed with a drill is killing people, yet at the
beginning nobody notices him \'till it\'s too late. Meanwhile, a group of
teenage girls decide to have a slumber party, and some of their boyfriends
drop by. Soon, people begin to disappear. Then, an all out drill massacre
begins...
-------------------------------------------------------------------------------
Post Information
-------------------------------------------------------------------------------
Posted by............: Noir
Posted on............: 7/22/2008

Slumber Party Massacre 3 (1990) 1337x By {Noir} preview 5

Slumber Party Massacre 3 (1990) 1337x By {Noir} preview 6

Slumber Party Massacre 3 (1990) 1337x By {Noir} preview 7

related torrents

Torrent name

health leech seeds Size
 


comments (0)

Main Menu