Other

The Lightning Thief 2010 Dvdrip Clearsubs 720p Highquality

  • Download 5x Faster
  • Download torrent
  • Direct Download
  • Rate this torrent +  |  -
The Lightning Thief 2010 Dvdrip Clearsubs 720p Highquality

Free and Direct Download with Usenet.nl 300GB+ free


Torrent info

Name:The Lightning Thief 2010 Dvdrip Clearsubs 720p Highquality

Total Size: 716.85 MB

Magnet: Magnet Link

Seeds: 0

Leechers: 0

Stream: Watch Online @ Movie4u

Last Updated: 2015-08-29 03:27:21 (Update Now)

Torrent added: 2010-02-16 05:12:53





Torrent Files List


 

tracker

leech seeds
 

Torrent description

NOTES:
=====


NEVER LISTEN TO FAKE COMMENTERs
BE CAUTIOUS WITH FAKE UPLOADS
DL FIRST BEFORE COMMENTING
SEED IF YOU LIKE THE FILE

SHARING IS GOOD!!! so SEED SEED SEED!!




i compresed it to almost 1gig i don't like big data...this is for people who dot have fast up our downloads because u have 2 seed what u take i lost a little quality...its stayed on 93%
til there are good qwality blurays from our trusted uploaders i hope this DVD wil give u some fun....enjoy

***********************************************************************************

this is how i do it
**DVD Rip Extr DVD to AVI ,AVS Video conv.
**Rip DVD9 to DVD5 with CloneDVD3, DVDFab platinum
**Rip with DVDShrink , Media Video Conv.
**Burn Video_TS files with Ashampoo 9, Shrink & burn 3 Aone Movie Maker
**Watch DVD Files with gom player, media player lite, test screen player
**Edit sony vegas pro 9.0 64bit

***********************************************************************************

Format : AVI
Format/Info : Audio Video Interleave
Format profile : OpenDML
Duration : 1h 33mn
Overall bit rate : 1 341 Kbps
Writing application : VirtualDubMod 1.5.10.2 (build 2542/release)

Video
Format : xvid
Codec ID : xvid
Duration : 1h 33mn
Bit rate : 1 209 Kbps
Width : 720 pixels
Height : 320 pixels
Display aspect ratio : 2.25:1
Frame rate : 25.000 fps
Resolution : 24 bits
Bits/(Pixel*Frame) : 0.210
Stream size : 635.4 MiB (90%)

Audio
ID : 1
Format : MPEG Audio
Format version : Version 1
Format profile : Layer 3
Codec ID : 55
Codec ID/Hint : MP3
Duration : 1h 33mn
Bit rate mode : Constant
Bit rate : 128 Kbps
Channel(s) : 2 channels
Sampling rate : 48.0 KHz
Resolution : 16 bits
Stream size : 70.6 MiB (10%)
Alignment : Aligned on interleaves
Interleave, duration : 639 ms (15.98 video frames)
Interleave, preload duration : 216 ms
Writing library : LAME3.96.1

related torrents

Torrent name

health leech seeds Size
 

comments (0)

Main Menu