Blues

[EAC FLAC]Johnny Cash At Folsom Prison(1968)[Rem 1999][CR Bt]

  • Download 5x Faster
  • Download torrent
  • Direct Download
  • Rate this torrent +  |  -
[EAC FLAC]Johnny Cash At Folsom Prison(1968)[Rem 1999][CR Bt]

Anonymous and Free Direct Download 300GB+


Torrent info

Name:[EAC FLAC]Johnny Cash At Folsom Prison(1968)[Rem 1999][CR Bt]

Total Size: 308.18 MB

Magnet: Magnet Link

Seeds: 0

Leechers: 0

Stream: Watch Online @ Movie4u

Last Updated: 2015-09-28 06:36:38 (Update Now)

Torrent added: 2009-08-23 02:57:24



VPN For Torrents

Torrent Files List


10 - The Wall.flac (Size: 270.87 MB) (Files: 19)

 10 - The Wall.flac

8.41 MB

 11 - Dirty Old Egg Suckin' Dog.flac

7.83 MB

 12 - Flushed From The Bathroom Of Your Heart.flac

12.36 MB

 13 - Joe Bean.flac

12.58 MB

 15 - Give My Love To Rose.flac

14.05 MB

 16 - I Got Stripes.flac

10.74 MB

 17 - The Legend Of John Henry's Hammer.flac

39.06 MB

 18 - Green, Green Grass Of Home.flac

13.65 MB

 19 - Greystone Chapel.flac

34.17 MB

 Johnny Cash - At Folsom Prison.cue

5.60 KB

 Johnny Cash - At Folsom Prison.log

3.77 KB

 09 - Send A Picture Of The Mother.flac

11.20 MB

 08 - The Long Black Veil.flac

19.59 MB

 06 - 25 Minutes To Go.flac

19.85 MB

 05 - Cocaine Blues.flac

17.68 MB

 04 - I Still Miss Someone.flac

9.04 MB

 03 - Dark As Dungeon.flac

16.41 MB

 02 - Busted.flac

7.96 MB

 01 - Folsom Prison Blues.flac

16.27 MB
 

tracker

leech seeds
 

Torrent description

Exact Audio Copy V0.99 prebeta 4 from 23. January 2008



EAC extraction logfile from 9. February 2009, 22:03



Unknown Artist / Unknown Title



Used drive : HL-DT-STDVD-ROM GDR8164B Adapter: 1 ID: 0



Read mode : Secure

Utilize accurate stream : Yes

Defeat audio cache : Yes

Make use of C2 pointers : Yes



Read offset correction : 102

Overread into Lead-In and Lead-Out : No

Fill up missing offset samples with silence : Yes

Delete leading and trailing silent blocks : No

Null samples used in CRC calculations : No

Used interface : Installed external ASPI interface



Used output format : User Defined Encoder

Selected bitrate : 768 kBit/s

Quality : High

Add ID3 tag : No

Command line compressor : C:\Programmi\Exact Audio Copy\FLAC\FLAC.EXE

Additional command line options : -6 -V -T "ARTIST=%a" -T "TITLE=%t" -T "ALBUM=%g" -T "DATE=%y" -T "TRACKNUMBER=%n" -T "GENRE=%m" -T "COMMENT=%e" %s -o %d





TOC of the extracted CD



Track | Start | Length | Start sector | End sector

---------------------------------------------------------

1 | 0:00.00 | 2:42.00 | 0 | 12149

2 | 2:42.00 | 1:24.50 | 12150 | 18499

3 | 4:06.50 | 3:04.42 | 18500 | 32341

4 | 7:11.17 | 1:37.53 | 32342 | 39669

5 | 8:48.70 | 3:01.25 | 39670 | 53269

6 | 11:50.20 | 3:31.00 | 53270 | 69094

7 | 15:21.20 | 3:00.65 | 69095 | 82659

8 | 18:22.10 | 3:57.47 | 82660 | 100481

9 | 22:19.57 | 2:10.38 | 100482 | 110269

10 | 24:30.20 | 1:36.40 | 110270 | 117509

11 | 26:06.60 | 1:30.17 | 117510 | 124276

12 | 27:37.02 | 2:17.00 | 124277 | 134551

13 | 29:54.02 | 2:25.35 | 134552 | 145461

14 | 32:19.37 | 3:12.28 | 145462 | 159889

15 | 35:31.65 | 2:40.47 | 159890 | 171936

16 | 38:12.37 | 1:57.03 | 171937 | 180714

17 | 40:09.40 | 7:08.22 | 180715 | 212836

18 | 47:17.62 | 2:29.38 | 212837 | 224049

19 | 49:47.25 | 6:02.12 | 224050 | 251211





Range status and errors



Selected range



Filename H:\Musica\FLAC\Unknown Artist - Unknown Title.wav



Peak level 100.0 %

Range quality 100.0 %

Test CRC E5D437F6

Copy CRC E5D437F6

Copy OK



No errors occurred





AccurateRip summary



Track 1 accurately ripped (confidence 86) [04459D29]

Track 2 accurately ripped (confidence 87) [22EFB7E9]

Track 3 accurately ripped (confidence 87) [59322519]

Track 4 accurately ripped (confidence 86) [08082EAA]

Track 5 accurately ripped (confidence 86) [4BB47E7C]

Track 6 accurately ripped (confidence 86) [1EDF67B5]

Track 7 accurately ripped (confidence 86) [DC3118ED]

Track 8 accurately ripped (confidence 85) [20F7CDB5]

Track 9 accurately ripped (confidence 86) [0C539753]

Track 10 accurately ripped (confidence 85) [699753C5]

Track 11 accurately ripped (confidence 86) [7BB4012E]

Track 12 accurately ripped (confidence 86) [5254CBE8]

Track 13 accurately ripped (confidence 85) [1E610617]

Track 14 accurately ripped (confidence 86) [2B8D24EA]

Track 15 accurately ripped (confidence 84) [B005E112]

Track 16 accurately ripped (confidence 85) [EF19AD7C]

Track 17 accurately ripped (confidence 86) [C4532C3E]

Track 18 accurately ripped (confidence 85) [53541EE9]

Track 19 accurately ripped (confidence 85) [83C6FF35]



All tracks accurately ripped



End of status report

related torrents

Torrent name

health leech seeds Size
 


comments (0)

Main Menu