Horror

B T K (2008) 1337x By {Noir}

  • Download 5x Faster
  • Download torrent
  • Direct Download
  • Rate this torrent +  |  -
B T K (2008) 1337x By {Noir}

Anonymous and Free Direct Download 300GB+


Torrent info

Name:B T K (2008) 1337x By {Noir}

Total Size: 737.22 MB

Magnet: Magnet Link

Seeds: 0

Leechers: 0

Stream: Watch Online @ Movie4u

Last Updated: 2011-02-06 11:32:26 (Update Now)

Torrent added: 2008-07-22 13:53:45



VPN For Torrents

Torrent Files List


1337x.Org.txt (Size: 737.22 MB) (Files: 3)

 1337x.Org.txt

0.03 KB

 B.T.K. (2008) [1337x] By {Noir}.avi

737.21 MB

 Noir.nfo

4.71 KB
 

Announce URL: http://genesis.1337x.org:1337/announce

Torrent description

B T K  (2008) 1337x By {Noir} preview 0

Screenshots

B T K  (2008) 1337x By {Noir} preview 1

B T K  (2008) 1337x By {Noir} preview 2

B T K  (2008) 1337x By {Noir} preview 3
_____________________________________________________________________________
▓▓▓▓▓▓
▓█████▓ ▓▓▓▓
▓██████▓ ▓▓███▓
▓▓██████▓ ▓████▓▓▓▓▓▓
▓██████▓ ▓██▒█▓▓███▓▓ ▓▓▓▓▓▓▓▓▓▓▓▓▓
▓██▒████▓ ▓██▒█▓██████▓▓███▓███▓███▓▓
▓██▒▒████▓ ▓██▒███▒▒▒▒██▓████████████▓
▓██▒▒▒▒███▓ ▓██▒██▒▒▒▒▒▒███▒▒▒██▒█▒▒▒██▓▓
▓██▒▒██▒▒██▓▓██▒██▒▒█▒▒▒▒███████▒▒▒▒▒▒██▓
▓██▒▒███▒▒██▓██▒██▒█▓█▒▒▒██▒▒▒██▒▒██▒▒▒█▓
▓██▒▒████▒▒████▒██▒█▓█▒▒▒██▒▒▒██▒▒███▒██▓
▓██▒▒█▓███▒▒███▒██▒▒█▒▒▒▒██▒▒▒██▒▒██████▓
▓██▒▒█▓▓███▒▒██▒██▒▒▒▒▒▒▒██▒▒▒██▒▒██▓███▓
▓▓██▒▒█▓ ▓███▒▒█▒██▒▒▒▒▒▒▒███████▒▒██▓▓▓▓▓
▓▓███▒▒█▓ ▓███▒▒▒███▒▒▒▒▒██▓▓▓▓██▒▒██▓
▓████▒▒█▓ ▓███▒▒█████████▓▓ ▓██▒▒██▓
▓████▒▒█▓ ▓███▒█▓██████▓▓▓ ▓██████▓
▓███████▓ ▓▓████▓▓▓▓▓▓▓▓ ▓▓▓▓▓▓▓▓
▓▓▓▓▓▓▓▓▓ ▓▓▓▓▓
_____________________________________________________________________________



*******************************************************************************
B.T.K. (2008)
*******************************************************************************

-------------------------------------------------------------------------------
General Information
-------------------------------------------------------------------------------
Type : Movie
Format : AVI
Format/Info : Audio Video Interleave
File size : 737 MiB
Duration : 1h 25mn
Source : Dvd R5
Genre : Horror
IMDB Link : http://www.imdb.com/title/tt1176095/
Rating : 6.9/10

Video
Format : MPEG-4 Visual
Format profile : Streaming [email protected]
Format settings, BVOP : Yes
Format settings, QPel : No
Format settings, GMC : No warppoints
Format settings, Matrix : Default
Muxing mode : Packet Bitstream
Codec ID : XVID
Codec ID/Hint : XviD
Duration : 1h 25mn
Bit rate : 1068 Kbps
Width : 624 pixels
Height : 320 pixels
Display aspect ratio : 1.950
Frame rate : 23.976 fps
Resolution : 8 bits
Colorimetry : 4:2:0
Scan type : Progressive
Bits/(Pixel*Frame) : 0.223
Stream size : 653 MiB (89%)

Audio
Format : MPEG Audio
Format version : Version 1
Format profile : Layer 3
Codec ID : 55
Codec ID/Hint : MP3
Duration : 1h 25mn
Bit rate mode : Constant
Bit rate : 128 Kbps
Minimum bit rate : 128 Kbps
Channel(s) : 2 channels
Sampling rate : 48.0 KHz
Resolution : 16 bits
Stream size : 78.3 MiB (11%)
Alignment : Aligned on interleaves
Interleave, duration : 42 ms (1.00 video frame)
Interleave, preload duration : 504 ms
Writing library : LAME3.97
Encoding settings : CBR
-------------------------------------------------------------------------------
Description
-------------------------------------------------------------------------------
Inspired by the real-life serial Killer, B.T.K is the gruesome story of
Dennis L. Rader, a murderer who systematically tortured and killed his
victims for over two decades while evading the police for over 30 years.
Living a seemingly normal life as a husband, father, security officer and
church president, RaderÆs unquenchable thirst for blood ultimately led him
to commit the most horrific crimes imaginable. Shocking and full of suspense,
B.T.K is a grisly journey into the nightmarish world of a deranged killer.
-------------------------------------------------------------------------------
Post Information
-------------------------------------------------------------------------------
Posted by............: Noir
Posted on............: 7/22/2008

B T K  (2008) 1337x By {Noir} preview 4

B T K  (2008) 1337x By {Noir} preview 5

related torrents

Torrent name

health leech seeds Size
 


comments (0)

Main Menu