Other

Moonlight S01E01 07 HDTV DVD Rip German Dubbed XviD MP3

  • Download 5x Faster
  • Download torrent
  • Direct Download
  • Rate this torrent +  |  -


Torrent info

Name:Moonlight S01E01 07 HDTV DVD Rip German Dubbed XviD MP3

Total Size: 2.25 GB

Magnet: Magnet Link

Seeds: 0

Leechers: 0

Stream: Watch Online @ Movie4u

Last Updated: 2017-08-23 15:44:43 (Update Now)

Torrent added: 2008-07-22 12:58:29



VPN For Torrents

Torrent Files List


Moonlight.[S01E01].Vampire.existieren.nicht.dTVrip.LD.Ger.Eng.XviD.avi (Size: 2.25 GB) (Files: 6)

 Moonlight.[S01E01].Vampire.existieren.nicht.dTVrip.LD.Ger.Eng.XviD.avi

388.37 MB

 Moonlight.[S01E02].Schatten.der.Vergangenheit.dTVrip.LD.Ger.Eng.XviD.avi

393.04 MB

 Moonlight.[S01E03].Dr.Feelgood.dTVrip.LD.Ger.Eng.XviD.avi

383.66 MB

 Moonlight.[S01E04].Fieber.dTVrip.LD.Ger.Eng.XviD.avi

393.23 MB

 Moonlight.[S01E05].Ewige.Jugend.dTVrip.LD.Ger.Eng.XviD.avi

397.94 MB

 Moonlight.[S01E06].Black.Christal.dTVrip.LD.German.XviD.avi

350.13 MB
 

Announce URL:

Torrent description

Torrent Name: Moonlight S01E01-06

-------------------------

--> Movie/Serie

Sprache: Deutsch / Teilweise DL mit Englisch als 2. Tonspur

Quelle: HDTV/DVD-Rip

Genre: Fantasy


Untertitel: --keine--

Extras: --keine--



-------------------------

Beschreibung:
In der Serie Moonlight, aka Twilight, geht es um einen Vampir, gespielt von Alex O'Loughlin (The Shield), der sich als Privatdetektiv seinen Lebensunterhalt verdient. Er hadert mit seiner Unsterblichkeit, kämpft gegen mächtige Gegner aus der Vampirwelt und ist in eine Sterbliche verliebt.


-------------------------

Teschnische Details:
General
Format : AVI
Format/Info : Audio Video Interleave
File size : 384 MiB
Duration : 40mn 53s
Overal bit rate : 1312 Kbps
Writing application : VirtualDubMod 1.5.10.2 (build 2540/release)
Writing library : VirtualDubMod build 2540/release

Video
Format : MPEG-4 Visual
Format profile : Streaming [email protected]
Format settings, BVOP : Yes
Format settings, QPel : No
Format settings, GMC : No warpoints
Format settings, Matrix : Default
Muxing mode : Packet Bitstream
Codec ID : XVID
Codec ID/Hint : XviD
Duration : 40mn 53s
Bit rate : 1038 Kbps
Width : 624 pixels
Height : 352 pixels
Display aspect ratio : 16/9
Frame rate : 25.000 fps
Resolution : 8 bits
Colorimetry : 4:2:0
Scan type : Progressive
Bits/(Pixel*Frame) : 0.189
Stream size : 304 MiB
Writing library : XviD 1.1.2 (UTC 2006-11-01)

Audio #1
Format : MPEG Audio
Format version : Version 1
Format profile : Layer 3
Codec ID : 55
Codec ID/Hint : MP3
Duration : 40mn 53s
Bit rate mode : Constant
Bit rate : 128 Kbps
Channel(s) : 2 channels
Sampling rate : 48.0 KHz
Resolution : 16 bits
Stream size : 37.4 MiB

Audio #2
Format : MPEG Audio
Format version : Version 1
Format profile : Layer 3
Codec ID : 55
Codec ID/Hint : MP3
Duration : 40mn 53s
Bit rate mode : Variable
Bit rate : 128 Kbps
Channel(s) : 2 channels
Sampling rate : 48.0 KHz
Resolution : 16 bits
Stream size : 37.5 MiB
Writing library : LAME3.90.
Encoding settings : ABR



--------------------------------------------

Note:

Happy Leeching und das Seeden nicht vergessen

Wuerdigt die Arbeit eines jeden Uppers mit einen Danke und/oder eines netten Kommentars.

Bin für Lob und Kritik stets offen.

--------------------------------------------



NFO File make with ZNFO Maker V6.0 Final
(C)2008 by Zero111

related torrents

Torrent name

health leech seeds Size
 


comments (0)

Main Menu