Other

Moonlight S01E07 Das Ebenbild German Dubbed WS HDTVRip XviD

  • Download 5x Faster
  • Download torrent
  • Direct Download
  • Rate this torrent +  |  -
Moonlight S01E07 Das Ebenbild German Dubbed WS HDTVRip XviD

Anonymous and Direct Download 300GB+ free


Torrent info

Name:Moonlight S01E07 Das Ebenbild German Dubbed WS HDTVRip XviD

Total Size: 343.69 MB

Magnet: Magnet Link

Seeds: 4

Leechers: 1

Stream: Watch Online @ Movie4u

Last Updated: 2009-11-26 03:07:01 (Update Now)

Torrent added: 2008-07-22 12:58:28




Torrent Files List


sof-moonlight.s01e07.avi (Size: 343.69 MB) (Files: 1)

 sof-moonlight.s01e07.avi

343.69 MB
 

Announce URL: http://wreckingcrew.hopto.org/announce.php

Torrent description

Torrent Name: Moonlight S01E07 Das Ebenbild

-------------------------

--> Movie/Serie

Sprache: Deutsch

Quelle: HDTV-Rip LD

Genre: Fantasy


Untertitel: --keine--

Extras: --keine--



-------------------------

Beschreibung:
In der Serie Moonlight, aka Twilight, geht es um einen Vampir, gespielt von Alex O'Loughlin (The Shield), der sich als Privatdetektiv seinen Lebensunterhalt verdient. Er hadert mit seiner Unsterblichkeit, kämpft gegen mächtige Gegner aus der Vampirwelt und ist in eine Sterbliche verliebt.


-------------------------

Teschnische Details:
General
Complete name : sof-moonlight.s01e07.avi
Format : AVI
Format/Info : Audio Video Interleave
File size : 344 MiB
Duration : 40mn 54s
Overal bit rate : 1175 Kbps
Writing application : Nandub v1.0rc2
Writing library : Nandub build 1852/release

Video
Format : MPEG-4 Visual
Format profile : Streaming [email protected]
Format settings, BVOP : Yes
Format settings, QPel : No
Format settings, GMC : No warpoints
Format settings, Matrix : Default
Codec ID : XVID
Codec ID/Hint : XviD
Duration : 40mn 54s
Bit rate : 1023 Kbps
Width : 640 pixels
Height : 352 pixels
Display aspect ratio : 16/9
Frame rate : 25.000 fps
Resolution : 8 bits
Colorimetry : 4:2:0
Scan type : Progressive
Bits/(Pixel*Frame) : 0.182
Stream size : 299 MiB
Writing library : XviD 1.2.0SMP (UTC 2006-01-08)

Audio
Format : MPEG Audio
Format version : Version 1
Format profile : Layer 3
Codec ID : 55
Codec ID/Hint : MP3
Duration : 40mn 54s
Bit rate mode : Variable
Bit rate : 138 Kbps
Channel(s) : 2 channels
Sampling rate : 48.0 KHz
Resolution : 16 bits
Video delay : 21ms
Stream size : 40.5 MiB


--------------------------------------------

Note:

Happy Leeching und das Seeden nicht vergessen

Wuerdigt die Arbeit eines jeden Uppers mit einen Danke und/oder eines netten Kommentars.

Bin für Lob und Kritik stets offen.

--------------------------------------------



NFO File make with ZNFO Maker V6.0 Final
(C)2008 by Zero111

related torrents

Torrent name

health leech seeds Size
 


comments (0)

Main Menu