Other

[S O P] Ritas Welt Staffel 1 FS German DVD Rip DivX

  • Download 5x Faster
  • Download torrent
  • Direct Download
  • Rate this torrent +  |  -
[S O P] Ritas Welt Staffel 1 FS German DVD Rip DivX

Free and Direct Download with Usenet 300GB+ free


Torrent info

Name:[S O P] Ritas Welt Staffel 1 FS German DVD Rip DivX

Total Size: 3.04 GB

Magnet: Magnet Link

Seeds: 0

Leechers: 0

Stream: Watch Online @ Movie4u

Last Updated: 2010-09-17 17:00:59 (Update Now)

Torrent added: 2009-08-23 02:50:31




Torrent Files List


S01E13 - Der Unternehmer.avi (Size: 3.04 GB) (Files: 14)

 S01E13 - Der Unternehmer.avi

238.58 MB

 S01E12 - Das grosse Schlamassel.avi

239.01 MB

 S01E11 - Freitag der 13.avi

239.11 MB

 S01E10 - Ein dicker Hund.avi

240.33 MB

 S01E09 - Gisis Lover.avi

241.48 MB

 S01E08 - Das Praktikum.avi

238.50 MB

 S01E07 - Ein komischer Heilliger.avi

238.97 MB

 S01E06 - Fruehlingsgefuehle.avi

240.63 MB

 S01E05 - Die Befoerderung.avi

240.84 MB

 S01E04 - Die Wasserschlacht.avi

239.50 MB

 S01E03 - Ein Freund der Familie.avi

240.32 MB

 S01E02 - Ein harter Schnitt.avi

239.10 MB

 S01E01 - Kittel des Grauens.avi

240.71 MB

 Ritas.Welt.Staffel.1.FS.German.DVD.Rip.DivX.nfo

3.04 KB
 

Announce URL: http://shadows-of-pain.ath.cx/announce.php

Torrent description

...::::Edelweis-Group Presents::::...

Torrent Name: Ritas Welt Staffel 1 Complete

-------------------------

--> Movie/Serie

Sprache: [X] Deutsch [ ] Englisch [ ] siehe Beschreibung

Video: [ ] HDTV [X] DVD [ ] TV/dTV [ ] TS [ ] Cam [ ] Sonstiges
Audio: [ ] AC3 [X] DVD [ ] TV/dTV [ ] LD [ ] Micro [ ] Sonstiges

Genre: TV-Serie/Comedy


Untertitel: keine

Extras: keine



-------------------------
Beschreibung:
Anpacken, zusammenhalten, Klartext reden - das ist Rita Kruse alias
Gaby Koester. Sie ist ein Multitalent des Alltags: Supermarktkassiererin,
Hausfrau und Mutter. Ihr Leben wird staendig vom Chaos bedroht. Aber
Rita hat fuer jede Situation ein Patentrezept: Geradeaus und durch,
egal was sich ihr in den Weg stellt.

-------------------------
Technische Details:
General
Format : DivX
Format/Info : Hack of AVI
File size : 241 MiB
Duration : 23mn 24s
Overall bit rate : 1438 Kbps

Video
Format : MPEG-4 Visual
Format settings, BVOP : Yes
Format settings, QPel : No
Format settings, GMC : No warppoints
Format settings, Matrix : Default
Muxing mode : Packet Bitstream
Codec ID : DX50
Codec ID/Hint : DivX 5
Duration : 23mn 24s
Bit rate : 1300 Kbps
Width : 720 pixels
Height : 576 pixels
Display aspect ratio : 5/4
Frame rate : 25.000 fps
Standard : PAL
Resolution : 8 bits
Colorimetry : 4:2:0
Scan type : Progressive
Bits/(Pixel*Frame) : 0.125
Stream size : 218 MiB (90)
Title : Video
Writing library : DivX 1670

Audio
Format : MPEG Audio
Format version : Version 1
Format profile : Layer 3
Codec ID : 55
Codec ID/Hint : MP3
Duration : 23mn 24s
Bit rate mode : Constant
Bit rate : 128 Kbps
Channel(s) : 2 channels
Sampling rate : 44.1 KHz
Resolution : 16 bits
Stream size : 21.4 MiB (9)
Alignment : Split accross interleaves
Interleave, duration : 40 ms (1.00 video frame)
Interleave, preload duration : 500 ms
Title : Audio




--------------------------------------------

Note:

Happy leeching und das Seeden nicht vergessen!!

Wuerdigt die Arbeit jedes Uppers mit einen Danke und/oder eines netten Kommentars.

Bin fuer Lob und Kritik stets offen.

--------------------------------------------



NFO File make with ZNFO Maker V6.6
(C)2008 by Edelweis-Group and VX / S4Y Crew

related torrents

Torrent name

health leech seeds Size
 

comments (0)

Main Menu