Other

[S O P] Ritas Welt Staffel 5 WS German DVD Rip DivX

  • Download 5x Faster
  • Download torrent
  • Direct Download
  • Rate this torrent +  |  -
[S O P] Ritas Welt Staffel 5 WS German DVD Rip DivX

Anonymous and Free Direct Download 300GB+


Torrent info

Name:[S O P] Ritas Welt Staffel 5 WS German DVD Rip DivX

Total Size: 3.46 GB

Magnet: Magnet Link

Seeds: 0

Leechers: 0

Stream: Watch Online @ Movie4u

Last Updated: 2010-08-25 16:46:05 (Update Now)

Torrent added: 2009-08-23 02:50:14



VPN For Torrents

Torrent Files List


Ritas Welt S05E13 - Die Hochzeit.avi (Size: 3.46 GB) (Files: 14)

 Ritas Welt S05E13 - Die Hochzeit.avi

266.38 MB

 Ritas.Welt.Staffel.5.WS.German.DVD.Rip.DivX.nfo

3.08 KB

 Ritas Welt S05E12 - Die Hochzeitsplaner.avi

274.29 MB

 Ritas Welt S05E11 - Schuhmann gibt Gas.avi

269.12 MB

 Ritas Welt S05E10 - Maennerstreit.avi

273.70 MB

 Ritas Welt S05E09 - Karneval im Supermarkt.avi

269.59 MB

 Ritas Welt S05E08 - Zwei auf gleichem Weg.avi

273.09 MB

 Ritas Welt S05E07 - Bitte laecheln Herr Schuhmann.avi

269.11 MB

 Ritas Welt S05E06 - Das Model.avi

270.32 MB

 Ritas Welt S05E05 - Markus grosse Liebe.avi

270.49 MB

 Ritas Welt S05E04 - Ein Hundeleben.avi

268.59 MB

 Ritas Welt S05E03 - Didis Party.avi

279.95 MB

 Ritas Welt S05E02 - Gisis Puppe.avi

273.27 MB

 Ritas Welt S05E01 - Gigantentreffen.avi

281.05 MB
 

Announce URL: http://shadows-of-pain.ath.cx/announce.php

Torrent description

...::::Edelweis-Group Presents::::...

Torrent Name: Ritas Welt Staffel 5 Complete

-------------------------

--> Movie/Serie

Sprache: [X] Deutsch [ ] Englisch [ ] siehe Beschreibung

Video: [ ] HDTV [X] DVD [ ] TV/dTV [ ] TS [ ] Cam [ ] Sonstiges
Audio: [ ] AC3 [X] DVD [ ] TV/dTV [ ] LD [ ] Micro [ ] Sonstiges

Genre: TV-Serie/Comedy


Untertitel: keine

Extras: keine



-------------------------
Beschreibung:
Anpacken, zusammenhalten, Klartext reden - das ist Rita Kruse alias
Gaby Koester. Sie ist ein Multitalent des Alltags: Supermarktkassiererin,
Hausfrau und Mutter. Ihr Leben wird staendig vom Chaos bedroht. Aber
Rita hat fuer jede Situation ein Patentrezept: Geradeaus und durch,
egal was sich ihr in den Weg stellt.

-------------------------
Technische Details:
General
Format : AVI
Format/Info : Audio Video Interleave
File size : 281 MiB
Duration : 23mn 21s
Overall bit rate : 1682 Kbps
Writing library : Boilsoft Joiner build 2411/release

Video
Format : MPEG-4 Visual
Format profile : [email protected]
Format settings, BVOP : No
Format settings, QPel : No
Format settings, GMC : No warppoints
Format settings, Matrix : Default
Codec ID : DX50
Codec ID/Hint : DivX 5
Duration : 23mn 21s
Bit rate : 1544 Kbps
Width : 720 pixels
Height : 576 pixels
Display aspect ratio : 16/9
Frame rate : 25.000 fps
Standard : PAL
Resolution : 8 bits
Colorimetry : 4:2:0
Scan type : Progressive
Bits/(Pixel*Frame) : 0.149
Stream size : 258 MiB (92)
Writing library : MasterSoft AV Encoder Core

Audio
Format : MPEG Audio
Format version : Version 1
Format profile : Layer 3
Codec ID : 55
Codec ID/Hint : MP3
Duration : 23mn 21s
Bit rate mode : Constant
Bit rate : 128 Kbps
Channel(s) : 2 channels
Sampling rate : 48.0 KHz
Resolution : 16 bits
Video delay : 16ms
Stream size : 21.4 MiB (8)
Alignment : Split accross interleaves
Interleave, duration : 40 ms (1.00 video frame)
Interleave, preload duration : 500 ms






--------------------------------------------

Note:

Happy leeching und das Seeden nicht vergessen!!

Wuerdigt die Arbeit jedes Uppers mit einen Danke und/oder eines netten Kommentars.

Bin fuer Lob und Kritik stets offen.

--------------------------------------------



NFO File make with ZNFO Maker V6.6
(C)2008 by Edelweis-Group and VX / S4Y Crew

related torrents

Torrent name

health leech seeds Size
 


comments (0)

Main Menu