Cold Case

Cold Case S05 FRENCH HDTV XVID [

  • Download 5x Faster
  • Download torrent
  • Direct Download
  • Rate this torrent +  |  -
Cold Case S05 FRENCH HDTV XVID [

Free and Direct Download with Usenet 300GB+ free


Torrent info

Name:Cold Case S05 FRENCH HDTV XVID [

Total Size: 6.29 GB

Magnet: Magnet Link

Seeds: 0

Leechers: 0

Stream: Watch Online @ Movie4u

Last Updated: 2015-10-17 23:46:49 (Update Now)

Torrent added: 2009-08-23 02:46:58




Torrent Files List


Cold Case S05E12 FRENCH HDTV XVID.avi (Size: 6.29 GB) (Files: 19)

 Cold Case S05E12 FRENCH HDTV XVID.avi

362.80 MB

 Cold Case S05E03 FRENCH HDTV XVID.avi

401.11 MB

 Cold Case S05E02 FRENCH HDTV XVID.avi

360.95 MB

 Cold Case S05E11 FRENCH HDTV XVID.avi

342.32 MB

 Cold Case S05E10 FRENCH HDTV XVID.avi

355.84 MB

 Cold Case S05E05 FRENCH HDTV XVID.avi

362.25 MB

 Cold Case S05 FRENCH HDTV XVID.nfo

2.71 KB

 Cold Case S05E14 FRENCH HDTV XVID.avi

353.95 MB

 Cold Case S05E07 FRENCH HDTV XVID.avi

358.66 MB

 Cold Case S05E15 FRENCH HDTV XVID.avi

352.06 MB

 Cold Case S05E08 FRENCH HDTV XVID.avi

350.58 MB

 Cold Case S05E04 FRENCH HDTV XVID.avi

348.27 MB

 Cold Case S05E06 FRENCH HDTV XVID.avi

349.18 MB

 Cold Case S05E17 FRENCH HDTV XVID.avi

349.76 MB

 Cold Case S05E16 FRENCH HDTV XVID.avi

352.21 MB

 Cold Case S05E18 FRENCH HDTV XVID.avi

350.82 MB

 Cold Case S05E13 FRENCH HDTV XVID.avi

361.54 MB

 Cold Case S05E01 FRENCH HDTV XVID.avi

363.07 MB

 Cold Case S05E09 FRENCH HDTV XVID.avi

366.80 MB
 

tracker

leech seeds
 

Torrent description

Pour Telecharger ce torrent vous devez vous inscrire sur

http://www.empereur-team.com/


scorpio

vous a uploadé

pour empereur team section SERIE-TV:

Cold Case S05



Synopsis

Détective de la police de Philadelphie, Lilly Rush enquête sur des affaires non résolues en faisant appel à son instinct, ainsi qu'à la science moderne...







Origine de la série : Américaine
Episodes : 134
Top Série : 129 ème
Statut : en production
Réalisateur : Meredith Stiehm en 2003
Acteurs : Kathryn Morris, Danny Pino
Genre : Drame, Policier
Durée : 42 Min
Date de diffusion : 5 Septembre 2004








NFO Type, la plupart des ??pisodes font 720*400

General

Complete name : Cold Case S05E01 FRENCH HDTV XVID.avi
Format : AVI
Format/Info : Audio Video Interleave
File size : 363 MiB
Duration : 42mn 5s
Overall bit rate : 1 206 Kbps
Writing application : MEncoder dev-SVN-rUNKNOWN-4.2.3
Writing library : MPlayer



Video

Format : MPEG-4 Visual
Format profile : Streaming Video@L1
Format settings, BVOP : Yes
Format settings, QPel : No
Format settings, GMC : No warppoints
Format settings, Matrix : Default (H.263)
Codec ID : XVID
Codec ID/Hint : XviD
Duration : 42mn 5s
Bit rate : 1 014 Kbps
Width : 608 pixels
Height : 336 pixels
Display aspect ratio : 16/9
Frame rate : 25.000 fps
Original frame rate : 23.976 fps
Resolution : 24 bits
Colorimetry : 4:2:0
Scan type : Progressive
Bits/(Pixel*Frame) : 0.199
Stream size : 305 MiB (84%)
Writing library : XviD 1.2.0.dev42 (UTC 2005-12)



Audio

Format : MPEG Audio
Format version : Version 1
Format profile : Layer 3
Codec ID : 55
Codec ID/Hint : MP3
Duration : 42mn 5s
Bit rate mode : Variable
Bit rate : 178 Kbps
Channel(s) : 2 channels
Sampling rate : 48.0 KHz
Resolution : 16 bits
Stream size : 53.7 MiB (15%)
Alignment : Aligned on interleaves
Interleave, duration : 24 ms (0.60 video frame)
Interleave, preload duration : 428 ms


1. Le mal triomphe (Thrill Kill)
2. C?ôurs patients (That Woman)
3. Le monde ext??rieur (Running Around)
4. La musique du diable (Devil Music)
5. Complices (Thick As Thieves)
6. Le dessous des cartes (Wunderkind)
7. La fin du monde (World's End)
8. Dans la fosse (It Takes A Village)
9. Gar?ºon manqu?? (Boy Crazy)
10. Justice (Justice)
11. Famille 8108 (Family 8108)
12. La ballade de John Henry (Sabotage)
13. Spider (Spiders)
14. Le monde du silence (Andy in c minor)
15. Sur la route (The road)
16. Mauvaise r??putation (Bad reputation)
17. A la folie (Slipping)
18. Berceau de cendres (Ghost of my child)

related torrents

Torrent name

health leech seeds Size
 

comments (0)

Main Menu