Charmed

Charmed Season 3 Disc2 DVD Rip XviD

  • Download 5x Faster
  • Download torrent
  • Direct Download
  • Rate this torrent +  |  -
Charmed Season 3 Disc2 DVD Rip XviD

Free and Direct Download with Usenet.nl 300GB+ free


Torrent info

Name:Charmed Season 3 Disc2 DVD Rip XviD

Total Size: 3.76 GB

Magnet: Magnet Link

Seeds: 0

Leechers: 0

Stream: Watch Online @ Movie4u

Last Updated: 2016-11-08 09:49:33 (Update Now)

Torrent added: 2009-08-23 02:39:17





Torrent Files List


S03b.jpg (Size: 3.76 GB) (Files: 14)

 S03b.jpg

2.15 MB

 front3b.jpg

123.88 KB

 Charmed.Season.3.Volume.2.DVD.Rip.XviD.nfo

4.49 KB

 Charmed.S03E22.Das.Ende.avi

349.92 MB

 Charmed.S03E21.Die.Todesfee.avi

349.99 MB

 Charmed.S03E20.Freund.oder.Feind.avi

349.98 MB

 Charmed.S03E19.Die.Bruderschaft.avi

349.96 MB

 Charmed.S03E18.Die.sieben.Todsuenden.avi

349.93 MB

 Charmed.S03E17.Aller.guten.Dinge.sind.neun.avi

349.99 MB

 Charmed.S03E16.Der.Tod.siegt.immer.avi

349.99 MB

 Charmed.S03E15.Trauung.mit.Hindernissen.avi

350.00 MB

 Charmed.S03E14.Stadt.der.Geister.avi

349.97 MB

 Charmed.S03E13.Das.Boese.in.mir.avi

349.98 MB

 Charmed.S03E12.Verlorene.Seelen.avi

349.99 MB
 

tracker

leech seeds
 

Torrent description




...::::Edelweis-Group Presents::::...

Torrent Name: Charmed Season 3 Volume 2

-------------------------

--> Movie/Serie

Sprache: [X] Deutsch [ ] Englisch [ ] siehe Beschreibung

Video: [ ] HDTV [X] DVD [ ] TV/dTV [ ] TS [ ] Cam [ ] Sonstiges
Audio: [ ] AC3 [X] DVD [ ] TV/dTV [ ] LD [ ] Micro [ ] Sonstiges

Genre: TV-Serie/Fantasy


Untertitel: keine

Extras: HD-DVD Cover



-------------------------
Beschreibung:

Serien-Upload: Teil 6/16 Restliche Teile folgen

Aller guten Dinge sind drei! Charmed - die dritte Season hat dreimal
soviel macht. gemixt mit uebernatuerlicher Spannung und Nervenkitzel.
Die "Maechtigen Drei" muessen ihr Leben als moderne Hexen in den Griff
kriegen. Doch wie kann es fuer die Halliwell-Schwestern noch komplizierter
werden? Eine muss erfahren dass die Liebe ihres Lebens auch ihr Todfeind
ist, eine andere mussachtet den Aelltestenrat, um zu heiraten und der
vorzeitige Tod der Dritten ebnet den Weg fuer die Entdeckkung einer
Halbschwester, von der Sie bisher nichts wussten. Alle 22 Episoden
ergeben den perfekten Zaubertrank aus mysterioeser Spannung und hintersinnigen
Humor, denn die drei schoenen Heldinnen verbinden den Kampf gegen das
Boese mit jeder Menge Fun.

-------------------------
Episodenguide:
Charmed Staffel 3 Volume 2

# Englischer Titel Deutscher Titel
12 Wrestling with Demons Verlorene Seelen
13 Bride and Gloom Das B se in mir
14 The Good, the Bad and the Cursed Stadt der Geister
15 Just Harried Trauung mit Hindernissen
16 Death Takes a Halliwell Der Tod siegt immer
17 Pre-Witched Aller guten Dinge sind neun
18 Sin Francisco Die sieben Tods nden
19 The Demon Who Came In from the Cold Die Bruderschaft
20 Exit Strategy Freund oder Feind?
21 Look Who's Barking Die Todesfee
22 All Hell Breaks Loose Das Ende

-------------------------
Technische Details:
General
Format : AVI
Format/Info : Audio Video Interleave
File size : 350 MiB
Duration : 41mn 24s
Overall bit rate : 1182 Kbps
Writing application : VirtualDubMod 1.5.4.1 (build 2178/release)
Writing library : VirtualDubMod build 2178/release
IAS1 : Deutsch

Video
Format : MPEG-4 Visual
Format profile : Streaming [email protected]
Format settings, BVOP : Yes
Format settings, QPel : No
Format settings, GMC : No warppoints
Format settings, Matrix : Custom
Codec ID : XVID
Codec ID/Hint : XviD
Duration : 41mn 24s
Bit rate : 1037 Kbps
Width : 640 pixels
Height : 480 pixels
Display aspect ratio : 4/3
Frame rate : 25.000 fps
Resolution : 8 bits
Colorimetry : 4:2:0
Scan type : Progressive
Bits/(Pixel*Frame) : 0.135
Stream size : 307 MiB (88)
Writing library : XviD 1.0.2 (UTC 2004-08-29)

Audio
Format : MPEG Audio
Format version : Version 1
Format profile : Layer 3
Codec ID : 55
Codec ID/Hint : MP3
Duration : 41mn 24s
Bit rate mode : Variable
Bit rate : 132 Kbps
Minimum bit rate : 128 Kbps
Channel(s) : 2 channels
Sampling rate : 48.0 KHz
Resolution : 16 bits
Stream size : 39.2 MiB (11)
Alignment : Aligned on interleaves
Interleave, duration : 24 ms (0.60 video frame)
Interleave, preload duration : 139 ms
Writing library : LAME3.96r
Encoding settings : ABR

related torrents

Torrent name

health leech seeds Size

Cheers Season 8 DVD Rip

0 0 4.44 GB 0
 

comments (0)

Main Menu