Charmed

Charmed Season 2 Disc2 DVD Rip XviD

  • Download 5x Faster
  • Download torrent
  • Direct Download
  • Rate this torrent +  |  -
Charmed Season 2 Disc2 DVD Rip XviD

Free and Direct Download with Usenet.nl 300GB+ free


Torrent info

Name:Charmed Season 2 Disc2 DVD Rip XviD

Total Size: 3.76 GB

Magnet: Magnet Link

Seeds: 0

Leechers: 0

Stream: Watch Online @ Movie4u

Last Updated: 2016-11-08 09:49:24 (Update Now)

Torrent added: 2009-08-23 02:39:14





Torrent Files List


front2b.jpg (Size: 3.76 GB) (Files: 14)

 front2b.jpg

144.33 KB

 S02b.jpg

1.68 MB

 Charmed.Season.2.Volume.2.FS.DVD.Rip.XviD.nfo

4.66 KB

 Charmed.S02E22.Wuensch.dir.was.avi

349.93 MB

 Charmed.S02E21.Die.Reiter.der.Apokalypse.avi

349.94 MB

 Charmed.S02E20.Hexenblut.avi

349.91 MB

 Charmed.S02E19.Ex.Libris.avi

349.90 MB

 Charmed.S02E18.Der.reinste.Horror.avi

349.97 MB

 Charmed.S02E17.Ewige.Jugend.avi

349.94 MB

 Charmed.S02E16.Vom.Pech.verfolgt.avi

349.89 MB

 Charmed.S02E15.Das.Zeichen.avi

349.96 MB

 Charmed.S02E14.Verflucht.in.alle.Ewigkeit.avi

349.89 MB

 Charmed.S02E13.Ein.tierisch.guter.Spuck.avi

349.90 MB

 Charmed.S02E12.Fieber.avi

349.87 MB
 

tracker

leech seeds
 

Torrent description





...::::Edelweis-Group Presents::::...

Torrent Name: Charmed Season 2 Volume 2

-------------------------

--> Movie/Serie

Sprache: [X] Deutsch [ ] Englisch [ ] siehe Beschreibung

Video: [ ] HDTV [X] DVD [ ] TV/dTV [ ] TS [ ] Cam [ ] Sonstiges
Audio: [ ] AC3 [X] DVD [ ] TV/dTV [ ] LD [ ] Micro [ ] Sonstiges

Genre: TV-Serie/Fantasy


Untertitel: keine

Extras: HD DVD-Cover



-------------------------
Beschreibung:

Serien-Upload: Teil 4/16 Restliche Teile folgen

Die Halliwell-Schwestern sind zurueck... und sie haben die "Macht
der Drei"! Charmed: Die komplette zweite Season verzaubert mit Spannung,
Abennteuer und Humor. Prue (Shanner Doherty), Piper (Holly Marie Combs)
und Pheobe (Alyssa Milano) bewaehren dich weiter auf ihrem vorbestimmten
Weg als moderne Hexen. Von der fulminanten Startepisode der Season
- in der das Trio einen alten bekaempft, der sich raechen will, imdem
er ihre Kraefte raubt - bis hin zum Suspense geladenen und doch humorvollen
Season-Finale machen die huebschen Heldinnen Lust auf mehr Magie. Ihre
Gegner werden staerker - Ihre Kraefte aber auch. Und das Uebernatuerliche
findet immer ungewoehnlicher Wege Ihnen ihr dramatisches Privatleben
immer dann zu zerstoeren wenn es gerade geordnet scheint. Jede einzelne
Charmed-Episode der zweiten Season verbreitet den Zauber, der Kritiker
und Zuschauer in den Bann zieht. Dieser Macht kann sich niemand entziehen.

-------------------------
Episodenguide:
Charmed Staffel 2 Volume 1

# Englischer Titel Deutscher Titel
12 Awakened Fieber
13 Animal Pragmatism Ein tierisch guter Spuk
14 Pardon My Past Verflucht in alle Ewigkeit
15 Give Me A Sign Das Zeichen
16 Murphy's Luck Vom Pech verfolgt
17 How To Make A Quilt Out Of Americans Ewige Jugend
18 Chick Flick Der reinste Horror
19 Ex Libris Ex Libris
20 Astral Monkey Hexenblut
21 Apocalypse Not Die Reiter der Apokalypse
22 Be Careful What You Witch For W nsch Dir was


-------------------------
Technische Details:
Format : AVI
Format/Info : Audio Video Interleave
File size : 350 MiB
Duration : 41mn 26s
Overall bit rate : 1181 Kbps
Writing application : VirtualDubMod 1.5.4.1 (build 2178/release)
Writing library : VirtualDubMod build 2178/release
IAS1 : Deutsch

Video
Format : MPEG-4 Visual
Format profile : Streaming [email protected]
Format settings, BVOP : Yes
Format settings, QPel : No
Format settings, GMC : No warppoints
Format settings, Matrix : Custom
Codec ID : XVID
Codec ID/Hint : XviD
Duration : 41mn 26s
Bit rate : 1036 Kbps
Width : 640 pixels
Height : 480 pixels
Display aspect ratio : 4/3
Frame rate : 25.000 fps
Resolution : 8 bits
Colorimetry : 4:2:0
Scan type : Progressive
Bits/(Pixel*Frame) : 0.135
Stream size : 307 MiB (88)
Writing library : XviD 1.0.2 (UTC 2004-08-29)

Audio
Format : MPEG Audio
Format version : Version 1
Format profile : Layer 3
Codec ID : 55
Codec ID/Hint : MP3
Duration : 41mn 25s
Bit rate mode : Variable
Bit rate : 132 Kbps
Nominal bit rate : 128 Kbps
Channel(s) : 2 channels
Sampling rate : 48.0 KHz
Resolution : 16 bits
Stream size : 39.1 MiB (11)
Alignment : Aligned on interleaves
Interleave, duration : 24 ms (0.60 video frame)
Interleave, preload duration : 139 ms
Writing library : LAME3.90.
Encoding settings : ABR

related torrents

Torrent name

health leech seeds Size

Cheers Season 8 DVD Rip

0 0 4.44 GB 0
 

comments (0)

Main Menu