Kids

Die wilden Hühner und die Liebe German DVD Rip XviD MP3

  • Download 5x Faster
  • Download torrent
  • Direct Download
  • Rate this torrent +  |  -
Die wilden Hühner und die Liebe German DVD Rip XviD MP3

Anonymous and Direct Download 300GB+ free


Torrent info

Name:Die wilden Hühner und die Liebe German DVD Rip XviD MP3

Total Size: 695.60 MB

Magnet: Magnet Link

Seeds: 0

Leechers: 0

Stream: Watch Online @ Movie4u

Last Updated: 2016-03-28 06:52:46 (Update Now)

Torrent added: 2008-07-22 12:41:38




Torrent Files List


Die.wilden.Huehner.und.die.Liebe.avi (Size: 695.60 MB) (Files: 1)

 Die.wilden.Huehner.und.die.Liebe.avi

695.60 MB
 

tracker

leech seeds
 

Torrent description

Torrent Name: Die wilden Hühner und die Liebe

-------------------------

--> Movie/Serie

Sprache: Deutsch

Quelle: DVD-Rip

Genre: Comedy/Kids


Untertitel: -keine-

Extras: -keine-



-------------------------

Beschreibung:
Die Liebe geht oft seltsame Wege - und einfach ist sie ohnehin nicht: Sprotte (Michelle von Treuberg), Frieda (Lucie Hollmann), Melanie (Paula Riemann), Wilma (Jette Hering) und Trude (Zsa Zsa Inci Bürkle) können davon bald ein Lied singen. Es ist fast wie im "Sommernachtstraum", den sie mit Lehrerin Frau Rose (Jessica Schwarz) auf der Bühne proben. Eifersucht, Trennungsschmerz und Wochenendfreundschaften sind normal. Und Oberhuhn Sprottes Vater Christian (Thomas Kretschmann) taucht nach Jahren wieder auf.

Deutschlands berühmteste Mädchenbande gerät in ihrem zweiten Leinwandauftritt in amouröse Turbulenzen. Basierend auf Cornelia Funkes fünftem Buch der Reihe bezaubert das Teenabenteuer, das mit Stars wie Veronica Ferres und Benno Fürmann prominent besetzt ist.


-------------------------

Teschnische Details:
General
Complete name : Die.wilden.Huehner.und.die.Liebe.avi
Format : AVI
Format/Info : Audio Video Interleave
File size : 696 MiB
Duration : 1h 43mn
Overal bit rate : 937 Kbps
Writing application : FairUse Wizard - fairusewizard.com
Writing library : The best and REALLY easy backup tool

Video
Format : MPEG-4 Visual
Format profile : Streaming [email protected]
Format settings, BVOP : Yes
Format settings, QPel : No
Format settings, GMC : No warpoints
Format settings, Matrix : Default
Muxing mode : Packet Bitstream
Codec ID : XVID
Codec ID/Hint : XviD
Duration : 1h 43mn
Bit rate : 799 Kbps
Width : 608 pixels
Height : 336 pixels
Display aspect ratio : 16/9
Frame rate : 25.000 fps
Resolution : 8 bits
Colorimetry : 4:2:0
Scan type : Progressive
Bits/(Pixel*Frame) : 0.156
Stream size : 593 MiB
Writing library : XviD 1.1.0 (UTC 2005-11-22)

Audio
Format : MPEG Audio
Format version : Version 1
Format profile : Layer 3
Codec ID : 55
Codec ID/Hint : MP3
Duration : 1h 43mn
Bit rate mode : Constant
Bit rate : 128 Kbps
Minimum bit rate : 128 Kbps
Channel(s) : 2 channels
Sampling rate : 48.0 KHz
Resolution : 16 bits
Stream size : 95.0 MiB
Writing library : LAME3.97b
Encoding settings : CBR



--------------------------------------------

Note:

Happy Leeching und das Seeden nicht vergessen

Wuerdigt die Arbeit eines jeden Uppers mit einen Danke und/oder eines netten Kommentars.

Bin für Lob und Kritik stets offen.

--------------------------------------------



NFO File make with ZNFO Maker V6.0 Final
(C)2008 by Zero111

related torrents

Torrent name

health leech seeds Size
 


comments (0)

Main Menu