Comedy

Herbie 1 6 Collection DVD Rip XviD MP3

  • Download 5x Faster
  • Download torrent
  • Direct Download
  • Rate this torrent +  |  -
Herbie 1 6 Collection DVD Rip XviD MP3

Anonymous and Direct Download 300GB+ free


Torrent info

Name:Herbie 1 6 Collection DVD Rip XviD MP3

Total Size: 4.62 GB

Magnet: Magnet Link

Seeds: 0

Leechers: 0

Stream: Watch Online @ Movie4u

Last Updated: 2016-01-30 10:14:04 (Update Now)

Torrent added: 2008-07-22 12:41:38




Torrent Files List


Herbie(1).Ein.Toller.Kaefer.avi (Size: 4.62 GB) (Files: 6)

 Herbie(1).Ein.Toller.Kaefer.avi

865.67 MB

 Herbie(2).in.grosser.Fahrt.avi

710.12 MB

 Herbie(3).goes.to.Monte.Carlo.avi

844.43 MB

 Herbie(4).goes.Bananas.avi

743.64 MB

 Herbie(5).Ein.Toller.Kaefer.kehrt.zurueck.avi

751.66 MB

 Herbie(6).Fully.Loaded.avi

811.82 MB
 

tracker

leech seeds
 

Torrent description

Torrent Name: Herbie 1-6 Collection

-------------------------

--> Movie/Serie

Sprache: Deutsch

Quelle: DVD-Rip

Genre: Comedy


Untertitel: -keine-

Extras: -keine-



-------------------------

1. Herbie - Ein Toller Käfer

Beschreibung:
-n/a-


-------------------------

Teschnische Details:
General
Complete name : Herbie(1).Ein.Toller.Kaefer.avi
Format : AVI
Format/Info : Audio Video Interleave
File size : 866 MiB
Duration : 1h 43mn
Overal bit rate : 1172 Kbps

Video
Format : MPEG-4 Visual
Format profile : Streaming [email protected]
Format settings, BVOP : Yes
Format settings, QPel : No
Format settings, GMC : No warpoints
Format settings, Matrix : Default
Muxing mode : Packet Bitstream
Codec ID : XVID
Codec ID/Hint : XviD
Duration : 1h 43mn
Bit rate : 971 Kbps
Width : 720 pixels
Height : 400 pixels
Display aspect ratio : 16/9
Frame rate : 25.000 fps
Resolution : 8 bits
Colorimetry : 4:2:0
Scan type : Progressive
Bits/(Pixel*Frame) : 0.135
Stream size : 717 MiB
Writing library : XviD 1.0.1 (UTC 2004-06-05)

Audio
Format : MPEG Audio
Format version : Version 1
Format profile : Layer 3
Codec ID : 55
Codec ID/Hint : MP3
Duration : 1h 43mn
Bit rate mode : Constant
Bit rate : 192 Kbps
Channel(s) : 2 channels
Sampling rate : 44.1 KHz
Resolution : 16 bits
Stream size : 142 MiB
Writing library : LAMELAME_MAJOR_VERSI



-------------------------

2. Herbie - Groß in Fahrt

Beschreibung:
Alonzo Hawk (KEENAN WYNN - Prime Risk) ist ein skrupelloser Immobilienhändler, der inmitten von San Francisco ein gigantisches Einkaufszentrum bauen will. Ein einziges Anwesen fehlt ihm allerdings noch: das viktorianische Haus der Witwe Steinmetz (HELEN HAYES - Ein Engel auf Erden). Um die alte Dame zum Verkauf zu zwingen, wendet Hawk nicht nur legale Mittel an... Erschwerend kommt hinzu, dass sein Neffe ein Auge auf die Nichte von Mrs. Steinmetz geworfen hat!Da kann nur noch der smarte VW Käfer "Herbie" helfen!


-------------------------

Teschnische Details:
General
Complete name : Herbie(2).in.grosser.Fahrt.avi
Format : AVI
Format/Info : Audio Video Interleave
File size : 710 MiB
Duration : 1h 25mn
Overal bit rate : 1159 Kbps

Video
Format : MPEG-4 Visual
Format profile : Streaming [email protected]
Format settings, BVOP : Yes
Format settings, QPel : No
Format settings, GMC : No warpoints
Format settings, Matrix : Default
Muxing mode : Packet Bitstream
Codec ID : XVID
Codec ID/Hint : XviD
Duration : 1h 25mn
Bit rate : 958 Kbps
Width : 720 pixels
Height : 400 pixels
Display aspect ratio : 16/9
Frame rate : 25.000 fps
Resolution : 8 bits
Colorimetry : 4:2:0
Scan type : Progressive
Bits/(Pixel*Frame) : 0.133
Stream size : 587 MiB
Writing library : XviD 1.0.1 (UTC 2004-06-05)

Audio
Format : MPEG Audio
Format version : Version 1
Format profile : Layer 3
Codec ID : 55
Codec ID/Hint : MP3
Duration : 1h 25mn
Bit rate mode : Constant
Bit rate : 192 Kbps
Channel(s) : 2 channels
Sampling rate : 44.1 KHz
Resolution : 16 bits
Stream size : 118 MiB
Writing library : LAMELAME_MAJOR_VERSI



-------------------------

3. Herbie - goes Montecarlo

Beschreibung:
Der Rennfahrer Jim Douglas (DEAN JONES - That Darn Cat) will mit Herbie, dembeliebten VW Käfer, an der jährlichen Straßenrallye von Paris nach Monte Carloteilnehmen. Die Qualifikationsrennen verlaufen nach Plan, bis sich Herbie in Giselle,einem blauen Lancia, verliebt. Und auch Jim ist der attraktiven Fahrerin desSportwagens Diane Darcy (JULIE SOMMARS - The Pad, and How to Use it) nichtabgeneigt. Die Reilly erreicht jedoch ungeahnte Ausmaße, als plötzlich eine Gruppevon Dieben hinter Herbie her ist. In seinem Tank befindet sich nämlich wertvollesDiebesgut Rasante Straßenrallye, gepaart mit romantischer Love Story!


-------------------------

Teschnische Details:
General
Complete name : Herbie(3).goes.to.Monte.Carlo.avi
Format : AVI
Format/Info : Audio Video Interleave
File size : 844 MiB
Duration : 1h 40mn
Overal bit rate : 1173 Kbps

Video
Format : MPEG-4 Visual
Format profile : Streaming [email protected]
Format settings, BVOP : Yes
Format settings, QPel : No
Format settings, GMC : No warpoints
Format settings, Matrix : Default
Muxing mode : Packet Bitstream
Codec ID : XVID
Codec ID/Hint : XviD
Duration : 1h 40mn
Bit rate : 972 Kbps
Width : 720 pixels
Height : 400 pixels
Display aspect ratio : 16/9
Frame rate : 25.000 fps
Resolution : 8 bits
Colorimetry : 4:2:0
Scan type : Progressive
Bits/(Pixel*Frame) : 0.135
Stream size : 699 MiB
Writing library : XviD 1.0.1 (UTC 2004-06-05)

Audio
Format : MPEG Audio
Format version : Version 1
Format profile : Layer 3
Codec ID : 55
Codec ID/Hint : MP3
Duration : 1h 40mn
Bit rate mode : Constant
Bit rate : 192 Kbps
Channel(s) : 2 channels
Sampling rate : 44.1 KHz
Resolution : 16 bits
Stream size : 138 MiB
Writing library : LAMELAME_MAJOR_VERSI



-------------------------

4. Herbie - goes Bananas

Beschreibung:
Herbie, der flotte VW Käfer, ist dieses Mal in Südamerika unterwegs. Seine beidenneuen Rennfahrer D.J. (CHARLES MARTIN SMITH - Deep Impact) und Pete(STEPHEN W. BURNS - Spiker) wollen mit ihm beim Großen Preis von Rio deJaneiro antreten. Doch bereits bei der Anreise erleben die Drei spannende Abenteuer.Letztendlich landen sie inmitten einer Stierkampf-Arena und Herbie muss als Torerogegen einen aufgebrachten Bullen antreten Spannende VW-Abenteuer mit südamerikanischem Flair!


-------------------------

Teschnische Details:
General
Complete name : Herbie(4).goes.Bananas.avi
Format : AVI
Format/Info : Audio Video Interleave
File size : 744 MiB
Duration : 1h 28mn
Overal bit rate : 1174 Kbps

Video
Format : MPEG-4 Visual
Format profile : Streaming [email protected]
Format settings, BVOP : Yes
Format settings, QPel : No
Format settings, GMC : No warpoints
Format settings, Matrix : Default
Muxing mode : Packet Bitstream
Codec ID : XVID
Codec ID/Hint : XviD
Duration : 1h 28mn
Bit rate : 972 Kbps
Width : 720 pixels
Height : 400 pixels
Display aspect ratio : 16/9
Frame rate : 25.000 fps
Resolution : 8 bits
Colorimetry : 4:2:0
Scan type : Progressive
Bits/(Pixel*Frame) : 0.135
Stream size : 616 MiB
Writing library : XviD 1.0.1 (UTC 2004-06-05)

Audio
Format : MPEG Audio
Format version : Version 1
Format profile : Layer 3
Codec ID : 55
Codec ID/Hint : MP3
Duration : 1h 28mn
Bit rate mode : Constant
Bit rate : 192 Kbps
Channel(s) : 2 channels
Sampling rate : 44.1 KHz
Resolution : 16 bits
Stream size : 122 MiB
Writing library : LAMELAME_MAJOR_VERSI



-------------------------

5. Herbie - Ein Toller Käfer kehrt zurück

Beschreibung:
-n/a-


-------------------------

Teschnische Details:
General
Complete name : Herbie(5).Ein.Toller.Kaefer.kehrt.zurueck.avi
Format : AVI
Format/Info : Audio Video Interleave
File size : 752 MiB
Duration : 1h 29mn
Overal bit rate : 1173 Kbps

Video
Format : MPEG-4 Visual
Format profile : Streaming [email protected]
Format settings, BVOP : Yes
Format settings, QPel : No
Format settings, GMC : No warpoints
Format settings, Matrix : Default
Muxing mode : Packet Bitstream
Codec ID : XVID
Codec ID/Hint : XviD
Duration : 1h 29mn
Bit rate : 971 Kbps
Width : 720 pixels
Height : 400 pixels
Display aspect ratio : 16/9
Frame rate : 25.000 fps
Resolution : 8 bits
Colorimetry : 4:2:0
Scan type : Progressive
Bits/(Pixel*Frame) : 0.135
Stream size : 622 MiB
Writing library : XviD 1.0.1 (UTC 2004-06-05)

Audio
Format : MPEG Audio
Format version : Version 1
Format profile : Layer 3
Codec ID : 55
Codec ID/Hint : MP3
Duration : 1h 29mn
Bit rate mode : Constant
Bit rate : 192 Kbps
Channel(s) : 2 channels
Sampling rate : 44.1 KHz
Resolution : 16 bits
Stream size : 123 MiB
Writing library : LAMELAME_MAJOR_VERSI



-------------------------

6. Herbie - Fully loaded

Beschreibung:
Herbie ist wieder da! Und der eigensinnige VW Käfer mit Herz und Seele hat nicht nur deutlich mehr PS als früher unter der Haube und so manchen neuen Trick auf Lager, sondern auch einen neuen Besitzer. Oder besser gesagt: eine neue Besitzerin. Maggie Peyton. Und Maggie hat einen Traum. Sie will das grte Autorennen des Jahres gewinnen und NASCAR-Champion werden. Und das mit einem alten Volkswagen! Anfangs wird sie verlacht, doch dann zeigt Herbie der Konkurrenz schnell, was eine Harke ist. Doch mit dem Erfolg wächst auch die Missgunst der Neider, die dem Geheimnis von Maggies Nummer 53 auf die Spur kommen wollen auch mit unlauteren Mitteln. Aber sie haben nicht mit Maggies Intelligenz gerechnet. Und mit Herbie, der sich nichts gefallen lässt, schon gar nicht! Endlich kehrt der beliebteste VW der Filmgeschichte auf die Leinwand zurück mit vielen neuen Tricks und Gimmicks unter der aufgemotzten Motorhaube: Mit Teensuperstar Lindsay Lohan (Freaky Friday) am Lenkrad dürfen Sie sich auf eine ausgelassene und spritzige Hochgeschwindigkeitskomödie mit viel Action und Effekten und noch mehr Herz freuen.


-------------------------

Teschnische Details:
General
Complete name : Herbie(6).Fully.Loaded.avi
Format : AVI
Format/Info : Audio Video Interleave
File size : 812 MiB
Duration : 1h 36mn
Overal bit rate : 1173 Kbps

Video
Format : MPEG-4 Visual
Format profile : Streaming [email protected]
Format settings, BVOP : Yes
Format settings, QPel : No
Format settings, GMC : No warpoints
Format settings, Matrix : Default
Muxing mode : Packet Bitstream
Codec ID : XVID
Codec ID/Hint : XviD
Duration : 1h 36mn
Bit rate : 971 Kbps
Width : 720 pixels
Height : 400 pixels
Display aspect ratio : 16/9
Frame rate : 25.000 fps
Resolution : 8 bits
Colorimetry : 4:2:0
Scan type : Progressive
Bits/(Pixel*Frame) : 0.135
Stream size : 672 MiB
Writing library : XviD 1.0.1 (UTC 2004-06-05)

Audio
Format : MPEG Audio
Format version : Version 1
Format profile : Layer 3
Codec ID : 55
Codec ID/Hint : MP3
Duration : 1h 36mn
Bit rate mode : Constant
Bit rate : 192 Kbps
Channel(s) : 2 channels
Sampling rate : 44.1 KHz
Resolution : 16 bits
Stream size : 133 MiB
Writing library : LAMELAME_MAJOR_VERSI




--------------------------------------------

Note:

Happy Leeching und das Seeden nicht vergessen

Wuerdigt die Arbeit eines jeden Uppers mit einen Danke und/oder eines netten Kommentars.

Bin für Lob und Kritik stets offen.

--------------------------------------------



NFO File make with ZNFO Maker V6.0 Final
(C)2008 by Zero111

related torrents

Torrent name

health leech seeds Size
 


comments (0)

Main Menu