War

Max Manus Man of War (2008) (AUTHENTIC U K EDITION) Norw+ENGSUBS Kuth

  • Download 5x Faster
  • Download torrent
  • Direct Download
  • Rate this torrent +  |  -
Max Manus Man of War (2008) (AUTHENTIC U K EDITION) Norw+ENGSUBS Kuth

Free and Direct Download with Usenet.nl 300GB+ free


Torrent info

Name:Max Manus Man of War (2008) (AUTHENTIC U K EDITION) Norw+ENGSUBS Kuth

Total Size: 707.02 MB

Magnet: Magnet Link

Seeds: 0

Leechers: 0

Stream: Watch Online @ Movie4u

Last Updated: 0000-00-00 00:00:00 (Update Now)

Torrent added: 2009-08-23 02:33:17





Torrent Files List


Sample (Size: 707.02 MB) (Files: 3)

 Sample

  Sample-Max Manus Man of War (2008) (AUTHENTIC U.K.EDITION)_Kuth.avi

7.26 MB

 Max Manus Man of War (2008) (AUTHENTIC U.K.EDITION)_Kuth .avi

699.75 MB

 Info about this release.txt

5.32 KB
 

Announce URL:

Torrent description

Max Manus Man of War (2008) (AUTHENTIC U.K.EDITION)

aka:
Man of War (2008)
Man of War Max Manus (2008)
Max Manus: Man of War (2008)
http://www.imdb.com/title/tt1029235/
http://www.manofwar.co.uk/

With official English subtitles hardcoded

Explosive story of the famous Norwegian war hero is finally available with proper English subtitles in this authentic U.K. edition DVD. Some versions with home-made subtitles have been available on the net, but alas full of errors and misunderstandings.

\"Awesome! Epic, explosive & utterly mesmerising\" (Talksport Magazine)
\"Visually stunning, powerful & uniquely moving\" (Blockbuster.co.uk)

In my opinion, this is the best Norwegian film made during the last decades. If you like it, I hope you will show your support by buying or renting the DVD, as I did myself. It has valuable extras, among then an exclusive documentary.

English is spoken in several scenes in the film, as well as German and Swedish, but the overall dialogue is in original Norwegian. No plans exist for an English-dubbed version of this movie.

My ripping procedure now produces decent quality for such a long film compressed into just 700 MiB. I enclose a sample for ye weak in faith.

A rip of the Nordic edition of this DVD with optional Nordic subtitles (DK, Fi, No, Se) is found at
http://thepiratebay.org/torrent/4930950/Max_Manus_(2008)_DVDrip_(Norwegian___opt.SUBS_DK_FI_NO_SE)

Widescreen DVDrip XviD 2-pass 704x288, great stereo sound AC3.
Runs well in both my standalone DivX players.


Format/Info : Audio Video Interleave
File size : 700 MiB
Duration : 1h 53mn
Overal bit rate : 865 Kbps

Video
Format : MPEG-4 Visual
Format profile : Streaming [email protected]
Format settings, BVOP : Yes
Format settings, QPel : No
Format settings, GMC : No warppoints
Format settings, Matrix : Default
Muxing mode : Packet Bitstream
Codec ID : XVID
Codec ID/Hint : XviD
Duration : 1h 53mn
Bit rate : 727 Kbps
Width : 704 pixels
Height : 288 pixels
Display aspect ratio : 2.444
Frame rate : 25.000 fps
Resolution : 8 bits
Colorimetry : 4:2:0
Scan type : Progressive
Bits/(Pixel*Frame) : 0.143
Stream size : 588 MiB
Writing library : XviD 1.2.0.dev47 (UTC 2006-11-01)

Audio
Format : MPEG Audio
Format version : Version 1
Format profile : Layer 3
Codec ID : 55
Codec ID/Hint : MP3
Duration : 1h 53mn
Bit rate mode : Constant
Bit rate : 128 Kbps
Minimum bit rate : 128 Kbps
Channel(s) : 2 channels
Sampling rate : 48.0 KHz
Resolution : 16 bits
Stream size : 104 MiB
Writing library : LAME3.97
Encoding settings : CBR

Source: PAL retail (U.K. edition) 7.3 Giga (note that PAL/NTSC will give no problems for avi files).

See my original presentation at http://thepiratebay.org/user/Kuthumi/

related torrents

Torrent name

health leech seeds Size
 

comments (0)

Main Menu