War

Max Manus (2008) DVDrip (Norwegian+opt SUBS DK,FI,NO,SE) Kuth

  • Download 5x Faster
  • Download torrent
  • Direct Download
  • Rate this torrent +  |  -
Max Manus (2008) DVDrip (Norwegian+opt SUBS DK,FI,NO,SE) Kuth

Anonymous and Free Direct Download 300GB+


Torrent info

Name:Max Manus (2008) DVDrip (Norwegian+opt SUBS DK,FI,NO,SE) Kuth

Total Size: 716.07 MB

Magnet: Magnet Link

Seeds: 0

Leechers: 0

Stream: Watch Online @ Movie4u

Last Updated: 2014-12-31 20:18:49 (Update Now)

Torrent added: 2009-08-23 02:33:15



VPN For Torrents

Torrent Files List


ZZ-Optional subtitles (Size: 716.07 MB) (Files: 9)

 ZZ-Optional subtitles

  Svenska.rar

775.48 KB

  Suomi.rar

735.21 KB

  Notes on subtitle files and burning of discs.txt

2.57 KB

  Norsk (utenlandsk dialog).rar

135.23 KB

  Norsk (full film).rar

722.57 KB

  Dansk.rar

759.31 KB

 Max Manus (2008) DVDrip (Norwegian + opt.SUBS DK,FI,NO,SE)_Kuth.avi

695.79 MB

 Info about this release.txt

4.92 KB

 AA-Sample

  Sample-Max Manus (2008) DVDrip (Norwegian)_Kuth.avi

17.22 MB
 

Announce URL:

Torrent description

Max Manus (2008) DVDrip (Norwegian + opt.SUBS DK,FI,NO,SE)
aka
Max Manus (2009)
Man of War (2008)

http://www.imdb.com/title/tt1029235/

Optional subtitles in separate idx/sub files (Work in Windows Media Player etc., see enclosed Note): Danish, Finnish, Norwegian, Swedish.
'Norsk (full film)' renders subtitles all through the film, 'Norsk (utenlandsk dialog)' only when other languages are spoken, mainly English and German. Hence, no subtitles are hardcoded into the picture.

To clarify: There are no dubbed soundtracks. This is a Norwegian film with most of the dialogue in Norwegian, and some in English and German.

True story about one of the most brilliant saboteurs during World War II and his battle to overcome his inner demons. In my opinion, the best Norwegian film made during the last decades.

The rental DVD is finally out, alas only with the subtitles I have included here. Subs in English and other languages are promised for a later edition.

Widescreen DVDrip XviD 2-pass 704x288, great stereo sound AC3.
Runs well in both my standalone DivX players.

My new ripping procedure now produces decent quality for such a long film
compressed into just 700 MiB. I enclose a sample for ye weak in faith.

MediaInfo analysis:
Filename: Max Manus (2008) DVDrip (Norwegian + opt.SUBS DK,FI,NO,SE)_Kuth.avi

Format/Info : Audio Video Interleave
File size : 696 MiB
Duration : 1h 52mn
Overal bit rate : 862 Kbps

Video
Format : MPEG-4 Visual
Format profile : Streaming [email protected]
Format settings, BVOP : Yes
Format settings, QPel : No
Format settings, GMC : No warppoints
Format settings, Matrix : Default
Muxing mode : Packet Bitstream
Codec ID : XVID
Codec ID/Hint : XviD
Duration : 1h 52mn
Bit rate : 724 Kbps
Width : 704 pixels
Height : 288 pixels
Display aspect ratio : 2.444
Frame rate : 25.000 fps
Resolution : 8 bits
Colorimetry : 4:2:0
Scan type : Progressive
Bits/(Pixel*Frame) : 0.143
Stream size : 585 MiB
Writing library : XviD 1.2.0.dev47 (UTC 2006-11-01)

Audio
Format : MPEG Audio
Format version : Version 1
Format profile : Layer 3
Codec ID : 55
Codec ID/Hint : MP3
Duration : 1h 52mn
Bit rate mode : Constant
Bit rate : 128 Kbps
Minimum bit rate : 128 Kbps
Channel(s) : 2 channels
Sampling rate : 48.0 KHz
Resolution : 16 bits
Stream size : 103 MiB
Writing library : LAME3.97
Encoding settings : CBR

Source: PAL rental 7.36 Giga (note that PAL/NTSC will give no problems for avi files).


See my original presentation at http://thepiratebay.org/user/Kuthumi/

related torrents

Torrent name

health leech seeds Size
 


comments (0)

Main Menu