Other

BeverlyHills90210 Staffel 3 dtv rip german xvid

  • Download 5x Faster
  • Download torrent
  • Direct Download
  • Rate this torrent +  |  -
BeverlyHills90210 Staffel 3 dtv rip german xvid

Anonymous and Free Direct Download 300GB+


Torrent info

Name:BeverlyHills90210 Staffel 3 dtv rip german xvid

Total Size: 11.99 GB

Magnet: Magnet Link

Seeds: 0

Leechers: 0

Stream: Watch Online @ Movie4u

Last Updated: 2016-11-22 12:47:11 (Update Now)

Torrent added: 2009-08-23 01:36:09



VPN For Torrents

Torrent Files List


nfo.nfo (Size: 11.99 GB) (Files: 33)

 nfo.nfo

2.92 KB

 Beverly.Hills.90210.-.S03E30 - Abschlussfeier 2.avi

398.30 MB

 Beverly.Hills.90210.-.S03E29.-.Abschlussfeier.-.Teil.1.by.SRC.avi

398.39 MB

 Beverly.Hills.90210.-.S03E28 - Fuer ein Glas zuviel.avi

398.55 MB

 Beverly.Hills.90210.-.S03E27.-.Eine.heisse.Nacht.by.SRC.avi

398.71 MB

 Beverly.Hills.90210.-.S03E27 - Eine heisse Nacht.avi

398.71 MB

 Beverly.Hills.90210.-.S03E26 - Fruehstuecksgaeste.avi

398.41 MB

 Beverly.Hills.90210.-.S03E25.-.Die.Besten.des.Jahres.by.SRC.avi

398.47 MB

 Beverly.Hills.90210.-.S03E24 - Traumfrauen.avi

398.43 MB

 Beverly.Hills.90210.-.S03E23 - Spielschulden.avi

398.56 MB

 Beverly.Hills.90210.-.S03E22 - Der heimliche Held.avi

398.63 MB

 Beverly.Hills.90210.-.S03E21 - Zahltag.avi

398.61 MB

 Beverly.Hills.90210.-.S03E20.-.Die.Unterschrift.by.SRC.avi

398.62 MB

 Beverly.Hills.90210.-.S03E19.-.Treue.ist.nur.ein.Wort.by.SRC.avi

398.53 MB

 Beverly.Hills.90210.-.S03E18 - Maennerphantasien.avi

398.56 MB

 Beverly.Hills.90210.-.S03E17.-.Wunder.dauern.etwas.laenger.by.SRC.avi

398.37 MB

 Beverly.Hills.90210.-.S03E16.-.Die.Mutprobe.by.SRC.avi

398.52 MB

 Beverly.Hills.90210.-.S03E15 - Sei nett zu Fremden.avi

398.71 MB

 Beverly.Hills.90210.-.S03E14 - Die Panne.avi

398.35 MB

 Beverly.Hills.90210.-.S03E13.-.Vertrauensbrueche.by.SRC.avi

398.60 MB

 Beverly.Hills.90210.-.S03E12 - Schicksalsstunden.avi

398.49 MB

 Beverly.Hills.90210.-.S03E11.-.Geheuchelte.Unschuld.by.SRC.avi

398.45 MB

 Beverly.Hills.90210.-.S03E10.-.Brandons.Alleingang.by.SRC.avi

398.50 MB

 Beverly.Hills.90210.-.S03E09.-.College-Fieber.by.SRC.avi

398.66 MB

 Beverly.Hills.90210.-.S03E08 - Blick hinter die Kulissen.avi

357.57 MB

 Beverly.Hills.90210.-.S03E07 - Der Neuling.avi

357.53 MB

 Beverly.Hills.90210.-.S03E06.-.Sandburgen.und.Luftschloesser.by.SRC.avi

398.57 MB

 Beverly.Hills.90210.-.S03E05.-.Kreuzfeuer.der.Liebe.by.SRC.avi

398.43 MB

 Beverly.Hills.90210.-.S03E04.-.Sex.,.Luegen.und.Volleyball.by.SRC.avi

398.69 MB

 Beverly.Hills.90210.-.S03E03.-.Liebeskummer.by.SRC.avi

398.64 MB

 Beverly.Hills.90210.-.S03E02.-.Nicht.ehetauglich.by.SRC.avi

398.69 MB

 Beverly.Hills.90210.-.S03E01.-.Ein.lausiger.Kellner.by.SRC.avi

398.54 MB

 Beverly Hills 90210 - Staffel 3 (Spine) - Cover.jpg

1.28 MB
 

tracker

leech seeds
 

Torrent description




Die Zwillinge Brenda und Brandon Walsh ziehen von Minnesota ins mondne Beverly Hills. Die Postleitzahl 90210 wurde durch
sie zum Kult. Zehn Jahre lang begeisterten die Geschichten um die Walsh-Zwillinge, die schicke Kelly Taylor, ihre
Busenfreundin Donna Martin, den coolen Dylan McKay oder die hinterhltige Valerie Malone die Zuschauer.

3. Staffel:

51. Ein lausiger Kellner

52. Nicht ehetauglich

53. Liebeskummer

54. Sex, Lgen und Volleyball

55. Kreuzfeuer der Liebe

56. Sandburgen und Luftschlsser

57. Der Neuling

58. Blick hinter die Kulissen

59. College-Fieber

60. Brandons Alleingang

61. Geheuchelte Unschuld

62. Schicksalsstunden

63. Vertrauensbrche

64. Die Panne

65. Sei nett zu Fremden

66. Die Mutprobe

67. Wunder dauern etwas lnger

68. Mnnerfantasien

69. Treue ist nur ein Wort

70. Die Unterschrift

71. Zahltag

72. Der heimliche Held

73. Spielschulden

74. Traumfrauen

75. Die Besten des Jahres

76. Frhstcksgste

77. Eine heie Nacht

78. Fr ein Glas zuviel

79. Die Abschlussfeier (1)

80. Die Abschlussfeier (2)

Format : AVI
Format/Info : Audio Video Interleave
Dateigre : 399 MiB
Duration : 43min
Gesamte Bitrate : 1273 Kbps
Verwendetes Programm : VirtualDubMod 1.5.10.2 (build 2540/release)
verwendete Encoder-Bibliothek : VirtualDubMod build 2540/release

Codec ID/Hint : XviD
Duration : 43min
Bitrate : 1142 Kbps
Breite : 576 Pixel
Hhe : 432 Pixel
Bildseitenverhltnis : 4/3
Bildwiederholungsrate : 25.000 FPS
Auflsung : 8 bits
Colorimetry : 4:2:0
Scan type : Interlaced
Scan order : Bottom Field First
Bits/(Pixel*Frame) : 0.184
Stream size : 358 MiB (90)
verwendete Encoder-Bibliothek : XviD 1.2.0.dev47 (UTC 2006-11-01)

Format : MPEG Audio
Format version : Version 1
Format profile : Layer 3
Codec ID : 55
Codec ID/Hint : MP3
Duration : 43min
Bitraten-Modus : Variable
Bitrate : 118 Kbps
Minimum bit rate : 128 Kbps
Kanle : 2 Kanle
Samplingrate : 48.0 KHz
Auflsung : 16 bits
Stream size : 37.0 MiB (9)
Alignment : Aligned on interleaves
Interleave, duration : 24 ms (0.60 video frame)
Interleave, preload duration : 500 ms
verwendete Encoder-Bibliothek : LAME3.97
Kodierungseinstellungen : ABR

related torrents

Torrent name

health leech seeds Size
 


comments (0)

Main Menu