Action

Terminat0r 4 Salvati0n R5 DVD Rip [700 MB][2009] [Demy]

  • Download 5x Faster
  • Download torrent
  • Direct Download
  • Rate this torrent +  |  -
Terminat0r 4 Salvati0n R5 DVD Rip [700 MB][2009] [Demy]

Free and Direct Download with Usenet 300GB+ free


Torrent info

Name:Terminat0r 4 Salvati0n R5 DVD Rip [700 MB][2009] [Demy]

Total Size: 686.49 MB

Magnet: Magnet Link

Seeds: 0

Leechers: 0

Stream: Watch Online @ Movie4u

Last Updated: 2015-09-10 00:59:37 (Update Now)

Torrent added: 2009-08-23 01:33:14




Torrent Files List


Torrent downloaded from Demonoid.com.txt (Size: 0.05 KB) (Files: 1)

 Torrent downloaded from Demonoid.com.txt

0.05 KB
 

tracker

leech seeds
 

Torrent description

Terminator 4 Salvation R5 DVD Rip [700 MB][2009] [Demy]

English, Danish, Dutch, French, Portuguese, Spanish& Turkish Subtitles Included

General
Complete name : Terminator 4 Salvation R5 DVD Rip [300 MB] [720x240] [Sample Included] [x264] [AAC] [2009] [Demy].mp4
Format : MPEG-4
Format profile : Base Media / Version 2
Codec ID : mp42
File size : 700 MiB
Duration : 1h 42mn (Credits Removed)
Overall bit rate : 406 Kbps

Video
ID : 1
Format : AVC
Format/Info : Advanced Video Codec
Format profile : [email protected]
Format settings, CABAC : Yes
Format settings, ReFrames : 4 frames
Codec ID : avc1
Codec ID/Info : Advanced Video Coding
Duration : 1h 42mn (Credits Removed)
Bit rate mode : Variable
Bit rate : 370 Kbps
Maximum bit rate : 2 143 Kbps
Width : 720 pixels
Height : 240 pixels
Display aspect ratio : 3.000
Frame rate mode : Constant
Frame rate : 24.000 fps
Resolution : 24 bits
Colorimetry : 4:2:0
Scan type : Progressive
Bits/(Pixel*Frame) : 0.089
Stream size : 271 MiB (91%)

Audio
ID : 2
Format : AAC
Format/Info : Advanced Audio Codec
Format version : Version 4
Format profile : LC
Format settings, SBR : Yes
Format settings, PS : Yes
Codec ID : 40
Duration : 1h 42mn (Credits Removed)
Bit rate mode : Variable
Bit rate : 31.3 Kbps
Maximum bit rate : 37.0 Kbps
Channel(s) : 2 channels
Channel positions : Front: L R
Sampling rate : 48.0 KHz
Resolution : 16 bits
Stream size : 22.9 MiB (8%)
Title : Dolby Digital 2-ch 48KHz

Screenshots:
Terminat0r 4 Salvati0n R5 DVD Rip [700 MB][2009] [Demy] preview 0
Terminat0r 4 Salvati0n R5 DVD Rip [700 MB][2009] [Demy] preview 1
Terminat0r 4 Salvati0n R5 DVD Rip [700 MB][2009] [Demy] preview 2

related torrents

Torrent name

health leech seeds Size
 

comments (0)

Main Menu