Other

RDTV S01E01 [MOV][BBC][h33t]

  • Download 5x Faster
  • Download torrent
  • Direct Download
  • Rate this torrent +  |  -
RDTV S01E01 [MOV][BBC][h33t]

Download FREE And Anonymously


Torrent info

Name:RDTV S01E01 [MOV][BBC][h33t]

Total Size: 461.33 MB

Magnet: Magnet Link

Seeds: 0

Leechers: 0

Stream: Watch Full Movie @ Movie4u

Last Updated: 2010-08-28 10:28:33 (Update Now)

Torrent added: 2009-08-23 01:30:28



VPN For Torrents

Torrent Files List


tracked_by_h33t_com.txt (Size: 461.33 MB) (Files: 4)

 tracked_by_h33t_com.txt

0.02 KB

 RDTV_ep1_30mins.mov

461.32 MB

 RDTV S01E01 [MOV][BBC][h33t].txt

5.78 KB

 RDTV readme.txt

3.07 KB
 

Announce URL: http://www.h33t.com:3310/announce

Torrent description

R&DTV - New project from RAD and BBC Backstage/ R&D


George Wright | 13:00 UK time, Thursday, 9 April 2009

Today we launch a new trial aimed at exploring new ways to create, edit and distribute online video. It's called R&DTV. We've done this in collaboration with colleagues in BBC Backstage, part of BBC R&D.

It's a pilot show, designed to be sharable, remixable and redistributable. It's released under a Creative Commons Attribution (Non-Commercial) licence, and looks at interesting tech stories inside and outside the BBC. The first episode features Nicholas Negroponte (talking about the OLPC project), Kevin Rose from digg.com, Graham Thomas from BBC Research and Ant Miller / George Auckland from the BBC discussing the BBC Micro. Hemmy Cho and Rain Ashford were the producers.

To quote from the FTP site -'R&DTV is a monthly technology programme made up of interviews from knowledgeable BBC developers, project experts and experts from around the world.

The programming comes in 3 forms.

1. A brief 5 minute video, containing all the very best bits
2. A longer 30 minute video, containing deeper conversations
3. The Asset Bundle, containing everything we used and didn't use to make the videos above'

Releasing the assets as well as the 5" and 30" versions is something that's new for us. We think this is an interesting and possibly important experiement in creating video and audio specifically to be shared and remixed, from a professional content provider's viewpoint.

We want this to help shape how the BBC makes and encodes content - but this is early days. We've learnt a lot during the making of it ( eg don't include background music, even in passing, if you want to grant rights for reuse, etc) and are interested to hear thoughts about what works and doesn't work.

We plan to release another of these next month (in May) and maybe some more, depending on how this goes. We've deliberately tried to take a semi-pro approach to some of this. Doing it in a BBC edit suite with 'proper' TV cameras/ facilities would have made it much easier for us to make, but more expensive, and less interesting for other people. We'll be collating our thoughts and your feedback here and on the Backstage blog.

The 5 minute Quicktime version is here, the Flash file lives here, and here's the 5 minute Ogg version.

It's up on YouTube here and Blip here

More formats are available. See the file list for R&DTV, select one of the R&DTV asset bundles to remix, or look at the R&DTV readme.

Please watch, share, remix, and feedback - [email protected]

Links:

torrentfreak: bbc gets ready for bittorrent distribution 090409

Quality:

Format : MPEG-4
Format profile : QuickTime
Codec ID : qt
File size : 461 MiB
Duration : 5mn 59s
Overall bit rate : 10.8 Mbps
Encoded date : UTC 2009-04-09 11:40:19
Tagged date : UTC 2009-04-09 11:57:39

Video
Format : AVC
Format/Info : Advanced Video Codec
Format profile : [email protected]
Format settings, CABAC : No
Format settings, ReFrames : 2 frames
Codec ID : avc1
Codec ID/Info : Advanced Video Coding
Duration : 5mn 59s
Bit rate mode : Variable
Bit rate : 9 238 Kbps
Width : 720 pixels
Height : 576 pixels
Display aspect ratio : 5/4
Frame rate mode : Constant
Frame rate : 25.000 fps
Standard : PAL
Resolution : 24 bits
Colorimetry : 4:2:0
Scan type : Progressive
Bits/(Pixel*Frame) : 0.891
Stream size : 395 MiB (86%)
Encoded date : UTC 2009-04-09 11:56:48
Tagged date : UTC 2009-04-09 11:57:39

Audio
Format : PCM
Format settings, Endianness : Little
Format settings, Sign : Signed
Codec ID : sowt
Duration : 5mn 59s
Bit rate mode : Constant
Bit rate : 1 536 Kbps
Channel(s) : 2 channels
Sampling rate : 48.0 KHz
Resolution : 16 bits
Stream size : 65.7 MiB (14%)
Encoded date : UTC 2009-04-09 11:56:48
Tagged date : UTC 2009-04-09 11:57:39

related torrents

Torrent name

health leech seeds Size

POV S01E01 mov

0 0 315.98 MB 0
 


comments (0)

Main Menu

 

script data-cfasync="false" src="//d2ghscazvn398x.cloudfront.net/?cshgd=690275">