Other

BBC Earth The Power Of The Planet 4 Of 5 Oceans[

  • Download 5x Faster
  • Download torrent
  • Direct Download
  • Rate this torrent +  |  -
BBC Earth The Power Of The Planet 4 Of 5 Oceans[

Anonymous and Free Direct Download 300GB+


Torrent info

Name:BBC Earth The Power Of The Planet 4 Of 5 Oceans[

Total Size: 744.68 MB

Magnet: Magnet Link

Seeds: 0

Leechers: 0

Stream: Watch Online @ Movie4u

Last Updated: 2010-08-24 20:25:40 (Update Now)

Torrent added: 2009-08-23 01:25:10



VPN For Torrents

Torrent Files List


BBC Earth The Power Of The Planet 4 Of 5 Oceans.sfv (Size: 744.68 MB) (Files: 55)

 BBC Earth The Power Of The Planet 4 Of 5 Oceans.sfv

8.77 KB

 BBC Earth The Power Of The Planet 4 Of 5 Oceans.part53.rar

825.77 KB

 BBC Earth The Power Of The Planet 4 Of 5 Oceans.part52.rar

14.31 MB

 BBC Earth The Power Of The Planet 4 Of 5 Oceans.part51.rar

14.31 MB

 BBC Earth The Power Of The Planet 4 Of 5 Oceans.part50.rar

14.31 MB

 BBC Earth The Power Of The Planet 4 Of 5 Oceans.part49.rar

14.31 MB

 BBC Earth The Power Of The Planet 4 Of 5 Oceans.part48.rar

14.31 MB

 BBC Earth The Power Of The Planet 4 Of 5 Oceans.part47.rar

14.31 MB

 BBC Earth The Power Of The Planet 4 Of 5 Oceans.part46.rar

14.31 MB

 BBC Earth The Power Of The Planet 4 Of 5 Oceans.part45.rar

14.31 MB

 BBC Earth The Power Of The Planet 4 Of 5 Oceans.part44.rar

14.31 MB

 BBC Earth The Power Of The Planet 4 Of 5 Oceans.part43.rar

14.31 MB

 BBC Earth The Power Of The Planet 4 Of 5 Oceans.part42.rar

14.31 MB

 BBC Earth The Power Of The Planet 4 Of 5 Oceans.part41.rar

14.31 MB

 BBC Earth The Power Of The Planet 4 Of 5 Oceans.part40.rar

14.31 MB

 BBC Earth The Power Of The Planet 4 Of 5 Oceans.part39.rar

14.31 MB

 BBC Earth The Power Of The Planet 4 Of 5 Oceans.part38.rar

14.31 MB

 BBC Earth The Power Of The Planet 4 Of 5 Oceans.part37.rar

14.31 MB

 BBC Earth The Power Of The Planet 4 Of 5 Oceans.part36.rar

14.31 MB

 BBC Earth The Power Of The Planet 4 Of 5 Oceans.part35.rar

14.31 MB

 BBC Earth The Power Of The Planet 4 Of 5 Oceans.part34.rar

14.31 MB

 BBC Earth The Power Of The Planet 4 Of 5 Oceans.part33.rar

14.31 MB

 BBC Earth The Power Of The Planet 4 Of 5 Oceans.part32.rar

14.31 MB

 BBC Earth The Power Of The Planet 4 Of 5 Oceans.part30.rar

14.31 MB

 BBC Earth The Power Of The Planet 4 Of 5 Oceans.part31.rar

14.31 MB

 BBC Earth The Power Of The Planet 4 Of 5 Oceans.part29.rar

14.31 MB

 BBC Earth The Power Of The Planet 4 Of 5 Oceans.part28.rar

14.31 MB

 BBC Earth The Power Of The Planet 4 Of 5 Oceans.part27.rar

14.31 MB

 BBC Earth The Power Of The Planet 4 Of 5 Oceans.part26.rar

14.31 MB

 BBC Earth The Power Of The Planet 4 Of 5 Oceans.part24.rar

14.31 MB

 BBC Earth The Power Of The Planet 4 Of 5 Oceans.part25.rar

14.31 MB

 BBC Earth The Power Of The Planet 4 Of 5 Oceans.part23.rar

14.31 MB

 BBC Earth The Power Of The Planet 4 Of 5 Oceans.part22.rar

14.31 MB

 BBC Earth The Power Of The Planet 4 Of 5 Oceans.part21.rar

14.31 MB

 BBC Earth The Power Of The Planet 4 Of 5 Oceans.part20.rar

14.31 MB

 BBC Earth The Power Of The Planet 4 Of 5 Oceans.part19.rar

14.31 MB

 BBC Earth The Power Of The Planet 4 Of 5 Oceans.part18.rar

14.31 MB

 BBC Earth The Power Of The Planet 4 Of 5 Oceans.part17.rar

14.31 MB

 BBC Earth The Power Of The Planet 4 Of 5 Oceans.part16.rar

14.31 MB

 BBC Earth The Power Of The Planet 4 Of 5 Oceans.part15.rar

14.31 MB

 BBC Earth The Power Of The Planet 4 Of 5 Oceans.part14.rar

14.31 MB

 BBC Earth The Power Of The Planet 4 Of 5 Oceans.part13.rar

14.31 MB

 BBC Earth The Power Of The Planet 4 Of 5 Oceans.part12.rar

14.31 MB

 BBC Earth The Power Of The Planet 4 Of 5 Oceans.part11.rar

14.31 MB

 BBC Earth The Power Of The Planet 4 Of 5 Oceans.part10.rar

14.31 MB

 BBC Earth The Power Of The Planet 4 Of 5 Oceans.part09.rar

14.31 MB

 BBC Earth The Power Of The Planet 4 Of 5 Oceans.part08.rar

14.31 MB

 BBC Earth The Power Of The Planet 4 Of 5 Oceans.part07.rar

14.31 MB

 BBC Earth The Power Of The Planet 4 Of 5 Oceans.part06.rar

14.31 MB

 BBC Earth The Power Of The Planet 4 Of 5 Oceans.part05.rar

14.31 MB

 BBC Earth The Power Of The Planet 4 Of 5 Oceans.part04.rar

14.31 MB

 BBC Earth The Power Of The Planet 4 Of 5 Oceans.part03.rar

14.31 MB

 BBC Earth The Power Of The Planet 4 Of 5 Oceans.part02.rar

14.31 MB

 BBC Earth The Power Of The Planet 4 Of 5 Oceans.part01.rar

14.31 MB

 BBC Earth The Power Of The Planet 4 Of 5 Oceans.nfo

1.94 KB
 

Announce URL: http://tracker.ilovetorrents.com/announce.php

Torrent description

General
Complete name BBC Earth The Power Of The Planet 4 Of 5 Oceans.avi
Format : AVI
Format/Info : Audio Video Interleave
File size : 745 MiB
Duration : 58mn 48s
Overal bit rate : 1770 Kbps
Writing application : VirtualDubMod 1.5.4.1 (build 2178/release)
Writing library : VirtualDubMod build 2178/release
IAS1 : English

Video
Format : MPEG-4 Visual
Format profile : Streaming [email protected]
Format settings, BVOP : Yes
Format settings, QPel : No
Format settings, GMC : No warppoints
Format settings, Matrix : Custom
Codec ID : XVID
Codec ID/Hint : XviD
Duration : 58mn 48s
Bit rate : 1572 Kbps
Width : 720 pixels
Height : 416 pixels
Display aspect ratio : 16/9
Frame rate : 25.000 fps
Resolution : 8 bits
Colorimetry : 4:2:0
Scan type : Progressive
Bits/(Pixel*Frame) : 0.210
Stream size : 661 MiB
Writing library : XviD 1.2.0.dev47 (UTC 2006-11-01)

Audio
Format : AC-3
Format/Info : Audio Coding 3
Codec ID : 2000
Duration : 58mn 48s
Bit rate mode : Constant
Bit rate : 192 Kbps
Channel(s) : 2 channels
Channel positions : L R
Sampling rate : 48.0 KHz
Stream size : 80.8 MiB

related torrents

Torrent name

health leech seeds Size
 


comments (0)

Main Menu