Other

BBC Earth The Power Of The Planet 3 Of 5 Ice[

  • Download 5x Faster
  • Download torrent
  • Direct Download
  • Rate this torrent +  |  -
BBC Earth The Power Of The Planet 3 Of 5 Ice[

Anonymous and Direct Download 300GB+ free


Torrent info

Name:BBC Earth The Power Of The Planet 3 Of 5 Ice[

Total Size: 744.79 MB

Magnet: Magnet Link

Seeds: 0

Leechers: 0

Stream: Watch Online @ Movie4u

Last Updated: 2010-10-05 20:10:21 (Update Now)

Torrent added: 2009-08-23 01:25:10




Torrent Files List


BBC Earth The Power Of The Planet 3 Of 5 Ice.sfv (Size: 744.79 MB) (Files: 55)

 BBC Earth The Power Of The Planet 3 Of 5 Ice.sfv

8.46 KB

 BBC Earth The Power Of The Planet 3 Of 5 Ice.part53.rar

937.62 KB

 BBC Earth The Power Of The Planet 3 Of 5 Ice.part52.rar

14.31 MB

 BBC Earth The Power Of The Planet 3 Of 5 Ice.part51.rar

14.31 MB

 BBC Earth The Power Of The Planet 3 Of 5 Ice.part50.rar

14.31 MB

 BBC Earth The Power Of The Planet 3 Of 5 Ice.part49.rar

14.31 MB

 BBC Earth The Power Of The Planet 3 Of 5 Ice.part48.rar

14.31 MB

 BBC Earth The Power Of The Planet 3 Of 5 Ice.part47.rar

14.31 MB

 BBC Earth The Power Of The Planet 3 Of 5 Ice.part46.rar

14.31 MB

 BBC Earth The Power Of The Planet 3 Of 5 Ice.part45.rar

14.31 MB

 BBC Earth The Power Of The Planet 3 Of 5 Ice.part44.rar

14.31 MB

 BBC Earth The Power Of The Planet 3 Of 5 Ice.part43.rar

14.31 MB

 BBC Earth The Power Of The Planet 3 Of 5 Ice.part42.rar

14.31 MB

 BBC Earth The Power Of The Planet 3 Of 5 Ice.part41.rar

14.31 MB

 BBC Earth The Power Of The Planet 3 Of 5 Ice.part40.rar

14.31 MB

 BBC Earth The Power Of The Planet 3 Of 5 Ice.part39.rar

14.31 MB

 BBC Earth The Power Of The Planet 3 Of 5 Ice.part38.rar

14.31 MB

 BBC Earth The Power Of The Planet 3 Of 5 Ice.part37.rar

14.31 MB

 BBC Earth The Power Of The Planet 3 Of 5 Ice.part36.rar

14.31 MB

 BBC Earth The Power Of The Planet 3 Of 5 Ice.part35.rar

14.31 MB

 BBC Earth The Power Of The Planet 3 Of 5 Ice.part34.rar

14.31 MB

 BBC Earth The Power Of The Planet 3 Of 5 Ice.part33.rar

14.31 MB

 BBC Earth The Power Of The Planet 3 Of 5 Ice.part32.rar

14.31 MB

 BBC Earth The Power Of The Planet 3 Of 5 Ice.part31.rar

14.31 MB

 BBC Earth The Power Of The Planet 3 Of 5 Ice.part30.rar

14.31 MB

 BBC Earth The Power Of The Planet 3 Of 5 Ice.part29.rar

14.31 MB

 BBC Earth The Power Of The Planet 3 Of 5 Ice.part28.rar

14.31 MB

 BBC Earth The Power Of The Planet 3 Of 5 Ice.part27.rar

14.31 MB

 BBC Earth The Power Of The Planet 3 Of 5 Ice.part26.rar

14.31 MB

 BBC Earth The Power Of The Planet 3 Of 5 Ice.part25.rar

14.31 MB

 BBC Earth The Power Of The Planet 3 Of 5 Ice.part24.rar

14.31 MB

 BBC Earth The Power Of The Planet 3 Of 5 Ice.part23.rar

14.31 MB

 BBC Earth The Power Of The Planet 3 Of 5 Ice.part22.rar

14.31 MB

 BBC Earth The Power Of The Planet 3 Of 5 Ice.part21.rar

14.31 MB

 BBC Earth The Power Of The Planet 3 Of 5 Ice.part20.rar

14.31 MB

 BBC Earth The Power Of The Planet 3 Of 5 Ice.part19.rar

14.31 MB

 BBC Earth The Power Of The Planet 3 Of 5 Ice.part18.rar

14.31 MB

 BBC Earth The Power Of The Planet 3 Of 5 Ice.part17.rar

14.31 MB

 BBC Earth The Power Of The Planet 3 Of 5 Ice.part16.rar

14.31 MB

 BBC Earth The Power Of The Planet 3 Of 5 Ice.part15.rar

14.31 MB

 BBC Earth The Power Of The Planet 3 Of 5 Ice.part14.rar

14.31 MB

 BBC Earth The Power Of The Planet 3 Of 5 Ice.part13.rar

14.31 MB

 BBC Earth The Power Of The Planet 3 Of 5 Ice.part12.rar

14.31 MB

 BBC Earth The Power Of The Planet 3 Of 5 Ice.part11.rar

14.31 MB

 BBC Earth The Power Of The Planet 3 Of 5 Ice.part10.rar

14.31 MB

 BBC Earth The Power Of The Planet 3 Of 5 Ice.part09.rar

14.31 MB

 BBC Earth The Power Of The Planet 3 Of 5 Ice.part08.rar

14.31 MB

 BBC Earth The Power Of The Planet 3 Of 5 Ice.part07.rar

14.31 MB

 BBC Earth The Power Of The Planet 3 Of 5 Ice.part05.rar

14.31 MB

 BBC Earth The Power Of The Planet 3 Of 5 Ice.part06.rar

14.31 MB

 BBC Earth The Power Of The Planet 3 Of 5 Ice.part04.rar

14.31 MB

 BBC Earth The Power Of The Planet 3 Of 5 Ice.part03.rar

14.31 MB

 BBC Earth The Power Of The Planet 3 Of 5 Ice.part02.rar

14.31 MB

 BBC Earth The Power Of The Planet 3 Of 5 Ice.part01.rar

14.31 MB

 BBC Earth The Power Of The Planet 3 Of 5 Ice.nfo

1.93 KB
 

Announce URL: http://tracker.ilovetorrents.com/announce.php

Torrent description

General
Complete name BBC Earth The Power Of The Planet 3 Of 5 Ice.avi
Format : AVI
Format/Info : Audio Video Interleave
File size : 745 MiB
Duration : 59mn 12s
Overal bit rate : 1759 Kbps
Writing application : VirtualDubMod 1.5.4.1 (build 2178/release)
Writing library : VirtualDubMod build 2178/release
IAS1 : English

Video
Format : MPEG-4 Visual
Format profile : Streaming [email protected]
Format settings, BVOP : Yes
Format settings, QPel : No
Format settings, GMC : No warppoints
Format settings, Matrix : Custom
Codec ID : XVID
Codec ID/Hint : XviD
Duration : 59mn 12s
Bit rate : 1560 Kbps
Width : 720 pixels
Height : 400 pixels
Display aspect ratio : 16/9
Frame rate : 25.000 fps
Resolution : 8 bits
Colorimetry : 4:2:0
Scan type : Progressive
Bits/(Pixel*Frame) : 0.217
Stream size : 661 MiB
Writing library : XviD 1.2.0.dev47 (UTC 2006-11-01)

Audio
Format : AC-3
Format/Info : Audio Coding 3
Codec ID : 2000
Duration : 59mn 12s
Bit rate mode : Constant
Bit rate : 192 Kbps
Channel(s) : 2 channels
Channel positions : L R
Sampling rate : 48.0 KHz
Stream size : 81.3 MiB

related torrents

Torrent name

health leech seeds Size
 


comments (0)

Main Menu