Drama

Anne of the Thousand Days (1969)

  • Download 5x Faster
  • Download torrent
  • Direct Download
  • Rate this torrent +  |  -
Anne of the Thousand Days (1969)

Free and Direct Download with Usenet 300GB+ free


Torrent info

Name:Anne of the Thousand Days (1969)

Total Size: 692.46 MB

Magnet: Magnet Link

Seeds: 0

Leechers: 0

Stream: Watch Online @ Movie4u

Last Updated: 2011-06-02 23:31:54 (Update Now)

Torrent added: 2008-07-22 03:33:43




Torrent Files List


Anne of the Thousand Days (1969) Richard Burton (Opt.Swesubs)Kuth.avi (Size: 692.46 MB) (Files: 4)

 Anne of the Thousand Days (1969) Richard Burton (Opt.Swesubs)Kuth.avi

691.31 MB

 Info about this release.txt

4.48 KB

 Notes on subtitle files.txt

1.68 KB

 Swedish subtitles optional.rar

1.15 MB
 

Announce URL:

Torrent description

Anne of the Thousand Days (1969)
Color, widescreen, stereo, English
Optional Swedish subtitles in separate idx/sub files.

Burton was born to play Henry VIII. If you have seen this Oscar-winning film from a TV channel, it has probably been edited to pieces in differenet pan-an-scan versions. Here, you will find the original extreme widescreen untouched, made from the 70 mm. original.

My new ripping procedure now produces decent quality for such a long film compressed into just 700 MiB.

DVDrip 2-pass, XviD
Widescreen 704x368, stereo sound.
Burn tested, runs well in both my standalone DivX players.

Format/Info : Audio Video Interleave
File size : 691 MiB
Duration : 2h 19mn
Overal bit rate : 693 Kbps
Video
Format : MPEG-4 Visual
Format profile : Streaming [email protected]
Format settings, BVOP : Yes
Format settings, QPel : No
Format settings, GMC : No warppoints
Format settings, Matrix : Default
Muxing mode : Packet Bitstream
Codec ID : XVID
Codec ID/Hint : XviD
Duration : 2h 19mn
Bit rate : 556 Kbps
Width : 704 pixels
Height : 368 pixels
Display aspect ratio : 1.913
Frame rate : 25.000 fps
Resolution : 8 bits
Colorimetry : 4:2:0
Scan type : Progressive
Bits/(Pixel*Frame) : 0.086
Stream size : 554 MiB
Writing library : XviD 1.2.0.dev47 (UTC 2006-11-01)

Audio
Format : MPEG Audio
Format version : Version 1
Format profile : Layer 3
Codec ID : 55
Codec ID/Hint : MP3
Duration : 2h 19mn
Bit rate mode : Constant
Bit rate : 128 Kbps
Minimum bit rate : 128 Kbps
Channel(s) : 2 channels
Sampling rate : 48.0 KHz
Resolution : 16 bits
Stream size : 128 MiB
Writing library : LAME3.97
Encoding settings : CBR

And the Boss says ...

related torrents

Torrent name

health leech seeds Size
 

comments (0)

Main Menu