Action

Exit Wounds Die Copjäger German DVD Rip XviD AC3

  • Download 5x Faster
  • Download torrent
  • Direct Download
  • Rate this torrent +  |  -
Exit Wounds Die Copjäger German DVD Rip XviD AC3

Anonymous and Free Direct Download 300GB+


Torrent info

Name:Exit Wounds Die Copjäger German DVD Rip XviD AC3

Total Size: 1.37 GB

Magnet: Magnet Link

Seeds: 0

Leechers: 0

Stream: Watch Online @ Movie4u

Last Updated: 2015-09-20 20:45:04 (Update Now)

Torrent added: 2008-07-22 03:33:32



VPN For Torrents

Torrent Files List


ExitWounds.avi (Size: 1.37 GB) (Files: 1)

 ExitWounds.avi

1.37 GB
 

tracker

leech seeds
 

Torrent description

Torrent Name: Exit Wounds - Die Copjäger

-------------------------

--> Movie/Serie

Sprache: Deutsch

Quelle: DVD-Rip

Genre: Action


Untertitel: -keine-

Extras: -keine-



-------------------------

Beschreibung:
Fünfzig Kilo Heroin verschwinden spurlos aus der Asservatenkammer des übelsten Polizeireviers von Detroit und niemand hat eine Erklärung dafür. Falls keiner den Mund aufmacht, wird das Rauschgift irgend jemanden um fünf Millionen Dollar reicher macher vielleicht trägt er sogar Uniform.Gestohlene Drogen, korrupte Cops. Latrell Walker (DMX) hat das Geld, um die Drogen zu kaufen. Der Deal bringt ihn auf die philosophische Frage: Sind alle Cops käuflich? Doch als er Orin Boyd (STEVEN SEAGAL) kennen lernt, muss er feststellen, dass es keine verlässlichen Regeln gibt schon gar nicht für Gesetzeshüter.Kompromisslos kämpft Detective Orin Boyd dafür, dem Gesetz Geltung zu verschaffen. Aber dabei hat er es selbst mehr als einmal übertreten. Jetzt muss er dafür ben im schlimmsten Revier der Stadt, das von der Leiterin Commander Mulcahy (JILL HENNESSY) mit harter Hand geführt wird. Orin ist gar nicht glücklich, als man ihm den naiven George (ISAIAH WASHINGTON) als Partner zuteilt. Bald ist Orin derart frustriert, dass sein Temperament mit ihm durchgeht. Er wird gezwungen, ein Psycho-Training zu absolvieren, um seine Wutausbrüche in den Griff zu bekommen. In diesem Kurs freundet er sich mit Henry Wayne (TOM ARNOLD) an, der im Fernsehen eine Frühstücks-Talkshow moderiert.Es dauert nicht lange, bis Orin auf ein von den eigenen Kollegen geführtes Drogensyndikat stt. Um die Wahrheit ans Licht zu bringen, braucht Orin die Hilfe eines bestimmten Mannes aber der ist alles andere als ein Cop.Orin Boyd stuft Latrell Walker als Durchschnittsgangster ein, der sich als Dealer großen Stils gesund stoßen will. Doch der Schein trügt. Latrell ist die Schlüsselfigur in dem Sumpf aus Korruption, in den Orin geraten ist.Orin kann keinem Kollegen trauen. Es gibt also nur einen Ausweg: Er und Latrell müssen an einem Strang ziehen, um die tödliche Verschwörung im Revier 15 aufzudecken. Manchmal führt der Weg ans Licht durch einen dunklen Tunnel.




-------------------------

Teschnische Details:
General
Complete name : ExitWounds.avi
Format : AVI
Format/Info : Audio Video Interleave
File size : 1.37 GiB
Duration : 1h 37mn
Overal bit rate : 2014 Kbps
Writing application : VirtualDubMod 1.5.4.1 (build 2178/release)
Writing library : VirtualDubMod build 2178/release
IAS1 : Deutsch

Video
Format : MPEG-4 Visual
Format profile : Streaming [email protected]
Format settings, BVOP : Yes
Format settings, QPel : No
Format settings, GMC : No warpoints
Format settings, Matrix : Custom
Codec ID : XVID
Codec ID/Hint : XviD
Duration : 1h 37mn
Bit rate : 1623 Kbps
Width : 720 pixels
Height : 304 pixels
Display aspect ratio : 2.35
Frame rate : 25.000 fps
Resolution : 8 bits
Colorimetry : 4:2:0
Scan type : Progressive
Bits/(Pixel*Frame) : 0.297
Stream size : 1.10 GiB
Writing library : XviD 1.2.0.dev47 (UTC 2006-11-01)

Audio
Format : AC-3
Format/Info : Audio Coding 3
Codec ID : 2000
Duration : 1h 37mn
Bit rate mode : Constant
Bit rate : 384 Kbps
Channel(s) : 6 channels
Channel positions : Front: L C R, Rear: L R, LFE
Sampling rate : 48.0 KHz
Stream size : 267 MiB



--------------------------------------------

Note:

Happy Leeching und das Seeden nicht vergessen

Wuerdigt die Arbeit eines jeden Uppers mit einen Danke und/oder eines netten Kommentars.

Bin für Lob und Kritik stets offen.

--------------------------------------------



NFO File make with ZNFO Maker V6.0 Final
(C)2008 by Zero111

related torrents

Torrent name

health leech seeds Size
 


comments (0)

Main Menu