Battlestar Galactica

Battlestar Galactica VOSTFR Saison4 Finale Complete [Phoenix tk]

  • Download 5x Faster
  • Download torrent
  • Direct Download
  • Rate this torrent +  |  -
Battlestar Galactica VOSTFR Saison4 Finale Complete [Phoenix tk]

Free and Direct Download with Usenet.nl 300GB+ free


Torrent info

Name:Battlestar Galactica VOSTFR Saison4 Finale Complete [Phoenix tk]

Total Size: 8.18 GB

Magnet: Magnet Link

Seeds: 0

Leechers: 0

Stream: Watch Online @ Movie4u

Last Updated: 2015-09-30 11:48:06 (Update Now)

Torrent added: 2009-08-23 01:20:47





Torrent Files List


Battlestar.Galactica.VOSTFR.Saison4.Finale.Complete.[Phoenix-tk].nfo (Size: 8.18 GB) (Files: 22)

 Battlestar.Galactica.VOSTFR.Saison4.Finale.Complete.[Phoenix-tk].nfo

46.52 KB

 Battlestar.Galactica.S04E20.VOSTFR.avi

845.04 MB

 Battlestar.Galactica.S04E19.VOSTFR.avi

381.07 MB

 Battlestar.Galactica.S04E18.VOSTFR.avi

382.05 MB

 Battlestar.Galactica.S04E17.VOSTFR.avi

382.53 MB

 Battlestar.Galactica.S04E16.VOSTFR.avi

380.17 MB

 Battlestar.Galactica.S04E15.VOSTFR.avi

380.97 MB

 Battlestar.Galactica.S04E14.VOSTFR.avi

380.50 MB

 Battlestar.Galactica.S04E13.VOSTFR.avi

353.58 MB

 Battlestar.Galactica.S04E12.VOSTFR.avi

349.01 MB

 Battlestar.Galactica.S04E11.VOSTFR.avi

347.57 MB

 Battlestar.Galactica.S04E10.VOSTFR.avi

348.70 MB

 Battlestar.Galactica.S04E09.VOSTFR.avi

349.12 MB

 Battlestar.Galactica.S04E08.VOSTFR.avi

349.92 MB

 Battlestar.Galactica.S04E07.VOSTFR.avi

349.96 MB

 Battlestar.Galactica.S04E06.VOSTFR.avi

349.19 MB

 Battlestar.Galactica.S04E05.VOSTFR.avi

348.59 MB

 Battlestar.Galactica.S04E04.VOSTFR.avi

348.45 MB

 Battlestar.Galactica.S04E03.VOSTFR.avi

349.91 MB

 Battlestar.Galactica.S04E02.VOSTFR.avi

350.37 MB

 Battlestar.Galactica.S04E01.VOSTFR.avi

349.92 MB

 Battlestar.Galactica.Razor.2007.VOSTFR.DVDRip.XviD-PM4.avi

697.14 MB
 

tracker

leech seeds
 

Torrent description

Description:
Battlestar.Galactica.VOSTFR.Saison4.Finale.Complete.[Phoenix-tk]Réalisateur : Michael Rymer
acteurs : Mary Mcdonnell, Edward James Olmos

Version originale - sous titré francais

Battlestar Galactica Razor
+
Battlestar Galactica Saison 4 - Finale - Complète
(20 épisodes)


Synopsis :
Alors que Starbuck perd peu à peu la confiance des hommes partis avec elle à la recherche de la Terre,
les extrémistes cylons sont bien décidés à mettre un terme au conflit,
et ils sont prêts à tout pour parvenir à leurs fins.
L'excellente dernière saison de Battlestar Galactica. Les 20 épisodes qui clôturent la série.


General
Complete name : Battlestar.Galactica.Razor.2007.VOSTFR.DVDRip.XviD-PM4.avi
Format : AVI
Format/Info : Audio Video Interleave
File size : 697 MiB
Duration : 1h 43mn
Overall bit rate : 940 Kbps
Writing application : VirtualDubMod 1.5.10.2 Fr | www.trad-fr.com || (build 2540/release)
Writing library : VirtualDubMod build 2540/release

Video
Format : MPEG-4 Visual
Format profile : Streaming [email protected]
Format settings, BVOP : Yes
Format settings, QPel : No
Format settings, GMC : No warppoints
Format settings, Matrix : Default
Muxing mode : Packed bitstream
Codec ID : XVID
Codec ID/Hint : XviD
Duration : 1h 43mn
Bit rate : 764 Kbps
Width : 624 pixels
Height : 336 pixels
Display aspect ratio : 1.857
Frame rate : 23.976 fps
Resolution : 24 bits
Colorimetry : 4:2:0
Scan type : Progressive
Bits/(Pixel*Frame) : 0.152
Stream size : 567 MiB (81%)
Writing library : XviD 1.1.2 (UTC 2006-11-01)

Audio
Format : MPEG Audio
Format version : Version 1
Format profile : Layer 3
Codec ID : 55
Codec ID/Hint : MP3
Duration : 1h 43mn
Bit rate mode : Variable
Bit rate : 163 Kbps
Nominal bit rate : 160 Kbps
Channel(s) : 2 channels
Sampling rate : 48.0 KHz
Resolution : 16 bits
Stream size : 121 MiB (17%)
Alignment : Aligned on interleaves
Interleave, duration : 24 ms (0.58 video frame)
Interleave, preload duration : 112 ms
Writing library : LAME3.90.
Encoding settings : ABR

-----

General
Complete name : Battlestar.Galactica.S04E01.VOSTFR.avi
Format : AVI
Format/Info : Audio Video Interleave
File size : 350 MiB
Duration : 42mn 58s
Overall bit rate : 1 138 Kbps
Writing application : VirtualDubMod 1.5.10.2 Fr | www.trad-fr.com || (build 2540/release)
Writing library : VirtualDubMod build 2540/release

Video
Format : MPEG-4 Visual
Format profile : Streaming [email protected]
Format settings, BVOP : Yes
Format settings, QPel : No
Format settings, GMC : No warppoints
Format settings, Matrix : Default
Muxing mode : Packed bitstream
Codec ID : XVID
Codec ID/Hint : XviD
Duration : 42mn 58s
Bit rate : 1 000 Kbps
Width : 624 pixels
Height : 352 pixels
Display aspect ratio : 16/9
Frame rate : 23.976 fps
Resolution : 24 bits
Colorimetry : 4:2:0
Scan type : Progressive
Bits/(Pixel*Frame) : 0.190
Stream size : 307 MiB (88%)
Writing library : XviD 1.1.2 (UTC 2006-11-01)

Audio
Format : MPEG Audio
Format version : Version 1
Format profile : Layer 3
Codec ID : 55
Codec ID/Hint : MP3
Duration : 42mn 58s
Bit rate mode : Variable
Bit rate : 126 Kbps
Minimum bit rate : 135 Kbps
Channel(s) : 2 channels
Sampling rate : 48.0 KHz
Resolution : 16 bits
Video delay : 48ms
Stream size : 38.8 MiB (11%)
Alignment : Aligned on interleaves
Interleave, duration : 24 ms (0.58 video frame)
Interleave, preload duration : 700 ms
Writing library : LAME3.98b
Encoding settings : ABR

-----

General
Complete name : Battlestar.Galactica.S04E02.VOSTFR.avi
Format : AVI
Format/Info : Audio Video Interleave
File size : 350 MiB
Duration : 42mn 46s
Overall bit rate : 1 145 Kbps
Writing application : VirtualDubMod 1.5.10.2 Fr | www.trad-fr.com || (build 2540/release)
Writing library : VirtualDubMod build 2540/release

Video
Format : MPEG-4 Visual
Format profile : Streaming [email protected]
Format settings, BVOP : Yes
Format settings, QPel : No
Format settings, GMC : No warppoints
Format settings, Matrix : Default
Muxing mode : Packed bitstream
Codec ID : XVID
Codec ID/Hint : XviD
Duration : 42mn 46s
Bit rate : 1 009 Kbps
Width : 624 pixels
Height : 352 pixels
Display aspect ratio : 16/9
Frame rate : 23.976 fps
Resolution : 24 bits
Colorimetry : 4:2:0
Scan type : Progressive
Bits/(Pixel*Frame) : 0.192
Stream size : 309 MiB (88%)
Writing library : XviD 1.1.2 (UTC 2006-11-01)

Audio
Format : MPEG Audio
Format version : Version 1
Format profile : Layer 3
Codec ID : 55
Codec ID/Hint : MP3
Duration : 42mn 46s
Bit rate mode : Variable
Bit rate : 123 Kbps
Minimum bit rate : 131 Kbps
Channel(s) : 2 channels
Sampling rate : 48.0 KHz
Resolution : 16 bits
Stream size : 37.6 MiB (11%)
Alignment : Aligned on interleaves
Interleave, duration : 24 ms (0.58 video frame)
Interleave, preload duration : 558 ms
Writing library : LAME3.98b
Encoding settings : ABR

-----

General
Complete name : Battlestar.Galactica.S04E03.VOSTFR.avi
Format : AVI
Format/Info : Audio Video Interleave
File size : 350 MiB
Duration : 42mn 52s
Overall bit rate : 1 141 Kbps
Writing application : VirtualDubMod 1.5.10.2 Fr | www.trad-fr.com || (build 2540/release)
Writing library : VirtualDubMod build 2540/release

Video
Format : MPEG-4 Visual
Format profile : Streaming [email protected]
Format settings, BVOP : Yes
Format settings, QPel : No
Format settings, GMC : No warppoints
Format settings, Matrix : Default
Muxing mode : Packed bitstream
Codec ID : XVID
Codec ID/Hint : XviD
Duration : 42mn 52s
Bit rate : 970 Kbps
Width : 624 pixels
Height : 352 pixels
Display aspect ratio : 16/9
Frame rate : 23.976 fps
Resolution : 24 bits
Colorimetry : 4:2:0
Scan type : Progressive
Bits/(Pixel*Frame) : 0.184
Stream size : 297 MiB (85%)
Writing library : XviD 1.1.2 (UTC 2006-11-01)

Audio
Format : MPEG Audio
Format version : Version 1
Format profile : Layer 3
Codec ID : 55
Codec ID/Hint : MP3
Duration : 42mn 52s
Bit rate mode : Variable
Bit rate : 158 Kbps
Minimum bit rate : 128 Kbps
Channel(s) : 2 channels
Sampling rate : 48.0 KHz
Resolution : 16 bits
Stream size : 48.6 MiB (14%)
Alignment : Aligned on interleaves
Interleave, duration : 24 ms (0.58 video frame)
Interleave, preload duration : 518 ms
Writing library : LAME3.93
Encoding settings : VBR (mtrh)

-----

General
Complete name : Battlestar.Galactica.S04E04.VOSTFR.avi
Format : AVI
Format/Info : Audio Video Interleave
File size : 348 MiB
Duration : 43mn 1s
Overall bit rate : 1 132 Kbps
Writing application : VirtualDubMod 1.5.10.2 Fr | www.trad-fr.com || (build 2540/release)
Writing library : VirtualDubMod build 2540/release

Video
Format : MPEG-4 Visual
Format profile : Streaming [email protected]
Format settings, BVOP : Yes
Format settings, QPel : No
Format settings, GMC : No warppoints
Format settings, Matrix : Default
Muxing mode : Packed bitstream
Codec ID : XVID
Codec ID/Hint : XviD
Duration : 43mn 1s
Bit rate : 963 Kbps
Width : 624 pixels
Height : 352 pixels
Display aspect ratio : 16/9
Frame rate : 23.976 fps
Resolution : 24 bits
Colorimetry : 4:2:0
Scan type : Progressive
Bits/(Pixel*Frame) : 0.183
Stream size : 296 MiB (85%)
Writing library : XviD 1.1.2 (UTC 2006-11-01)

Audio
Format : MPEG Audio
Format version : Version 1
Format profile : Layer 3
Codec ID : 55
Codec ID/Hint : MP3
Duration : 43mn 1s
Bit rate mode : Variable
Bit rate : 157 Kbps
Minimum bit rate : 128 Kbps
Channel(s) : 2 channels
Sampling rate : 48.0 KHz
Resolution : 16 bits
Stream size : 48.2 MiB (14%)
Alignment : Aligned on interleaves
Interleave, duration : 24 ms (0.58 video frame)
Interleave, preload duration : 480 ms
Writing library : LAME3.93
Encoding settings : VBR (mtrh)

-----

General
Complete name : Battlestar.Galactica.S04E05.VOSTFR.avi
Format : AVI
Format/Info : Audio Video Interleave
File size : 349 MiB
Duration : 43mn 6s
Overall bit rate : 1 130 Kbps
Writing application : VirtualDubMod 1.5.10.2 Fr | www.trad-fr.com || (build 2540/release)
Writing library : VirtualDubMod build 2540/release

Video
Format : MPEG-4 Visual
Format profile : Streaming [email protected]
Format settings, BVOP : Yes
Format settings, QPel : No
Format settings, GMC : No warppoints
Format settings, Matrix : Default
Muxing mode : Packed bitstream
Codec ID : XVID
Codec ID/Hint : XviD
Duration : 43mn 6s
Bit rate : 970 Kbps
Width : 624 pixels
Height : 352 pixels
Display aspect ratio : 16/9
Frame rate : 23.976 fps
Resolution : 24 bits
Colorimetry : 4:2:0
Scan type : Progressive
Bits/(Pixel*Frame) : 0.184
Stream size : 299 MiB (86%)
Writing library : XviD 1.1.2 (UTC 2006-11-01)

Audio
Format : MPEG Audio
Format version : Version 1
Format profile : Layer 3
Codec ID : 55
Codec ID/Hint : MP3
Duration : 43mn 6s
Bit rate mode : Variable
Bit rate : 148 Kbps
Minimum bit rate : 128 Kbps
Channel(s) : 2 channels
Sampling rate : 48.0 KHz
Resolution : 16 bits
Stream size : 45.5 MiB (13%)
Alignment : Aligned on interleaves
Interleave, duration : 24 ms (0.58 video frame)
Interleave, preload duration : 473 ms
Writing library : LAME3.98b
Encoding settings : VBR (mtrh)

-----

General
Complete name : Battlestar.Galactica.S04E06.VOSTFR.avi
Format : AVI
Format/Info : Audio Video Interleave
File size : 349 MiB
Duration : 41mn 52s
Overall bit rate : 1 166 Kbps
Writing application : VirtualDubMod 1.5.10.2 Fr | www.trad-fr.com || (build 2540/release)
Writing library : VirtualDubMod build 2540/release

Video
Format : MPEG-4 Visual
Format profile : Streaming [email protected]
Format settings, BVOP : Yes
Format settings, QPel : No
Format settings, GMC : No warppoints
Format settings, Matrix : Default
Muxing mode : Packed bitstream
Codec ID : XVID
Codec ID/Hint : XviD
Duration : 41mn 52s
Bit rate : 1 026 Kbps
Width : 624 pixels
Height : 352 pixels
Display aspect ratio : 16/9
Frame rate : 25.000 fps
Resolution : 24 bits
Colorimetry : 4:2:0
Scan type : Progressive
Bits/(Pixel*Frame) : 0.187
Stream size : 307 MiB (88%)
Writing library : XviD 1.1.2 (UTC 2006-11-01)

Audio
Format : MPEG Audio
Format version : Version 1
Format profile : Layer 3
Codec ID : 55
Codec ID/Hint : MP3
Duration : 41mn 52s
Bit rate mode : Variable
Bit rate : 128 Kbps
Channel(s) : 2 channels
Sampling rate : 48.0 KHz
Resolution : 16 bits
Stream size : 38.2 MiB (11%)
Alignment : Aligned on interleaves
Interleave, duration : 24 ms (0.60 video frame)
Interleave, preload duration : 496 ms
Writing library : LAME3.90.
Encoding settings : ABR

-----

General
Complete name : Battlestar.Galactica.S04E07.VOSTFR.avi
Format : AVI
Format/Info : Audio Video Interleave
File size : 350 MiB
Duration : 42mn 59s
Overall bit rate : 1 138 Kbps
Writing application : VirtualDubMod 1.5.10.2 Fr | www.trad-fr.com || (build 2540/release)
Writing library : VirtualDubMod build 2540/release

Video
Format : MPEG-4 Visual
Format profile : Streaming [email protected]
Format settings, BVOP : Yes
Format settings, QPel : No
Format settings, GMC : No warppoints
Format settings, Matrix : Default
Muxing mode : Packed bitstream
Codec ID : XVID
Codec ID/Hint : XviD
Duration : 42mn 59s
Bit rate : 977 Kbps
Width : 624 pixels
Height : 352 pixels
Display aspect ratio : 16/9
Frame rate : 23.976 fps
Resolution : 24 bits
Colorimetry : 4:2:0
Scan type : Progressive
Bits/(Pixel*Frame) : 0.186
Stream size : 300 MiB (86%)
Writing library : XviD 1.1.2 (UTC 2006-11-01)

Audio
Format : MPEG Audio
Format version : Version 1
Format profile : Layer 3
Codec ID : 55
Codec ID/Hint : MP3
Duration : 42mn 59s
Bit rate mode : Variable
Bit rate : 148 Kbps
Minimum bit rate : 128 Kbps
Channel(s) : 2 channels
Sampling rate : 48.0 KHz
Resolution : 16 bits
Stream size : 45.6 MiB (13%)
Alignment : Aligned on interleaves
Interleave, duration : 24 ms (0.58 video frame)
Interleave, preload duration : 481 ms
Writing library : LAME3.98b
Encoding settings : VBR (mtrh)

-----

General
Complete name : Battlestar.Galactica.S04E08.VOSTFR.avi
Format : AVI
Format/Info : Audio Video Interleave
File size : 350 MiB
Duration : 41mn 54s
Overall bit rate : 1 167 Kbps
Writing application : VirtualDubMod 1.5.10.2 Fr | www.trad-fr.com || (build 2540/release)
Writing library : VirtualDubMod build 2540/release

Video
Format : MPEG-4 Visual
Format profile : Streaming [email protected]
Format settings, BVOP : Yes
Format settings, QPel : No
Format settings, GMC : No warppoints
Format settings, Matrix : Default
Muxing mode : Packed bitstream
Codec ID : XVID
Codec ID/Hint : XviD
Duration : 41mn 54s
Bit rate : 1 025 Kbps
Width : 624 pixels
Height : 352 pixels
Display aspect ratio : 16/9
Frame rate : 25.000 fps
Resolution : 24 bits
Colorimetry : 4:2:0
Scan type : Progressive
Bits/(Pixel*Frame) : 0.187
Stream size : 307 MiB (88%)
Writing library : XviD 1.1.2 (UTC 2006-11-01)

Audio
Format : MPEG Audio
Format version : Version 1
Format profile : Layer 3
Codec ID : 55
Codec ID/Hint : MP3
Duration : 41mn 54s
Bit rate mode : Variable
Bit rate : 129 Kbps
Nominal bit rate : 128 Kbps
Channel(s) : 2 channels
Sampling rate : 48.0 KHz
Resolution : 16 bits
Stream size : 38.8 MiB (11%)
Alignment : Aligned on interleaves
Interleave, duration : 24 ms (0.60 video frame)
Interleave, preload duration : 408 ms
Writing library : LAME3.90.
Encoding settings : ABR

-----

General
Complete name : Battlestar.Galactica.S04E09.VOSTFR.avi
Format : AVI
Format/Info : Audio Video Interleave
File size : 349 MiB
Duration : 43mn 3s
Overall bit rate : 1 133 Kbps
Writing application : VirtualDubMod 1.5.10.2 Fr | www.trad-fr.com || (build 2540/release)
Writing library : VirtualDubMod build 2540/release

Video
Format : MPEG-4 Visual
Format profile : Streaming [email protected]
Format settings, BVOP : Yes
Format settings, QPel : No
Format settings, GMC : No warppoints
Format settings, Matrix : Default
Muxing mode : Packed bitstream
Codec ID : XVID
Codec ID/Hint : XviD
Duration : 43mn 3s
Bit rate : 995 Kbps
Width : 624 pixels
Height : 352 pixels
Display aspect ratio : 16/9
Frame rate : 23.976 fps
Resolution : 24 bits
Colorimetry : 4:2:0
Scan type : Progressive
Bits/(Pixel*Frame) : 0.189
Stream size : 307 MiB (88%)
Writing library : XviD 1.1.2 (UTC 2006-11-01)

Audio
Format : MPEG Audio
Format version : Version 1
Format profile : Layer 3
Codec ID : 55
Codec ID/Hint : MP3
Duration : 43mn 3s
Bit rate mode : Variable
Bit rate : 125 Kbps
Nominal bit rate : 128 Kbps
Channel(s) : 2 channels
Sampling rate : 48.0 KHz
Resolution : 16 bits
Stream size : 38.6 MiB (11%)
Alignment : Aligned on interleaves
Interleave, duration : 24 ms (0.58 video frame)
Interleave, preload duration : 462 ms
Writing library : LAME3.90.
Encoding settings : ABR

-----

General
Complete name : Battlestar.Galactica.S04E10.VOSTFR.avi
Format : AVI
Format/Info : Audio Video Interleave
File size : 349 MiB
Duration : 43mn 5s
Overall bit rate : 1 131 Kbps
Writing application : VirtualDubMod 1.5.10.2 Fr | www.trad-fr.com || (build 2540/release)
Writing library : VirtualDubMod build 2540/release

Video
Format : MPEG-4 Visual
Format profile : Streaming [email protected]
Format settings, BVOP : Yes
Format settings, QPel : No
Format settings, GMC : No warppoints
Format settings, Matrix : Default
Muxing mode : Packed bitstream
Codec ID : XVID
Codec ID/Hint : XviD
Duration : 43mn 5s
Bit rate : 995 Kbps
Width : 624 pixels
Height : 352 pixels
Display aspect ratio : 16/9
Frame rate : 23.976 fps
Resolution : 24 bits
Colorimetry : 4:2:0
Scan type : Progressive
Bits/(Pixel*Frame) : 0.189
Stream size : 307 MiB (88%)
Writing library : XviD 1.1.2 (UTC 2006-11-01)

Audio
Format : MPEG Audio
Format version : Version 1
Format profile : Layer 3
Codec ID : 55
Codec ID/Hint : MP3
Duration : 43mn 5s
Bit rate mode : Variable
Bit rate : 124 Kbps
Nominal bit rate : 128 Kbps
Channel(s) : 2 channels
Sampling rate : 48.0 KHz
Resolution : 16 bits
Stream size : 38.0 MiB (11%)
Alignment : Aligned on interleaves
Interleave, duration : 24 ms (0.58 video frame)
Interleave, preload duration : 432 ms
Writing library : LAME3.90.
Encoding settings : ABR

-----

General
Complete name : Battlestar.Galactica.S04E11.VOSTFR.avi
Format : AVI
Format/Info : Audio Video Interleave
File size : 348 MiB
Duration : 45mn 41s
Overall bit rate : 1 064 Kbps
Writing application : VirtualDubMod 1.5.10.2 Fr | www.trad-fr.com || (build 2540/release)
Writing library : VirtualDubMod build 2540/release

Video
Format : MPEG-4 Visual
Format profile : Streaming [email protected]
Format settings, BVOP : Yes
Format settings, QPel : No
Format settings, GMC : No warppoints
Format settings, Matrix : Default
Muxing mode : Packed bitstream
Codec ID : XVID
Codec ID/Hint : XviD
Duration : 45mn 41s
Bit rate : 929 Kbps
Width : 624 pixels
Height : 352 pixels
Display aspect ratio : 16/9
Frame rate : 23.976 fps
Resolution : 24 bits
Colorimetry : 4:2:0
Scan type : Progressive
Bits/(Pixel*Frame) : 0.176
Stream size : 304 MiB (87%)
Writing library : XviD 1.2.1 (UTC 2008-12-04)

Audio
Format : MPEG Audio
Format version : Version 1
Format profile : Layer 3
Codec ID : 55
Codec ID/Hint : MP3
Duration : 45mn 41s
Bit rate mode : Variable
Bit rate : 122 Kbps
Nominal bit rate : 128 Kbps
Channel(s) : 2 channels
Sampling rate : 48.0 KHz
Resolution : 16 bits
Stream size : 39.8 MiB (11%)
Alignment : Aligned on interleaves
Interleave, duration : 24 ms (0.58 video frame)
Interleave, preload duration : 570 ms
Writing library : LAME3.90.
Encoding settings : ABR

-----

General
Complete name : Battlestar.Galactica.S04E12.VOSTFR.avi
Format : AVI
Format/Info : Audio Video Interleave
File size : 349 MiB
Duration : 43mn 5s
Overall bit rate : 1 132 Kbps
Movie name : Battlestar.Galactica.S04E12.VOSTFR.HDTV.XviD-GKS.avi
Genre : Serie VOSTFR
Writing application : MEncoder dev-SVN-r26940
Writing library : MPlayer
Copyright : GuiKs Team
Comment : GuiKs Team - www.guiks.net

Video
Format : MPEG-4 Visual
Format profile : Streaming [email protected]
Format settings, BVOP : Yes
Format settings, QPel : No
Format settings, GMC : No warppoints
Format settings, Matrix : Default
Codec ID : XVID
Codec ID/Hint : XviD
Duration : 43mn 5s
Bit rate : 967 Kbps
Width : 624 pixels
Height : 352 pixels
Display aspect ratio : 16/9
Frame rate : 23.976 fps
Resolution : 24 bits
Colorimetry : 4:2:0
Scan type : Progressive
Bits/(Pixel*Frame) : 0.184
Stream size : 298 MiB (85%)
Writing library : XviD 1.1.2 (UTC 2006-11-01)

Audio
Format : MPEG Audio
Format version : Version 1
Format profile : Layer 3
Codec ID : 55
Codec ID/Hint : MP3
Duration : 43mn 5s
Bit rate mode : Variable
Bit rate : 152 Kbps
Minimum bit rate : 128 Kbps
Channel(s) : 2 channels
Sampling rate : 48.0 KHz
Resolution : 16 bits
Stream size : 47.0 MiB (13%)
Alignment : Aligned on interleaves
Interleave, duration : 24 ms (0.58 video frame)
Interleave, preload duration : 473 ms
Writing library : LAME3.98b
Encoding settings : VBR (mtrh)

-----

General
Complete name : Battlestar.Galactica.S04E13.VOSTFR.avi
Format : AVI
Format/Info : Audio Video Interleave
File size : 354 MiB
Duration : 43mn 4s
Overall bit rate : 1 148 Kbps
Writing application : transcode-1.0.2
Writing library : VirtualDub build 24478/release

Video
Format : MPEG-4 Visual
Format profile : [email protected]
Format settings, BVOP : Yes
Format settings, QPel : No
Format settings, GMC : No warppoints
Format settings, Matrix : Default
Muxing mode : Packed bitstream
Codec ID : XVID
Codec ID/Hint : XviD
Duration : 43mn 4s
Bit rate : 1 010 Kbps
Width : 624 pixels
Height : 352 pixels
Display aspect ratio : 16/9
Frame rate : 23.976 fps
Resolution : 24 bits
Colorimetry : 4:2:0
Scan type : Progressive
Bits/(Pixel*Frame) : 0.192
Stream size : 311 MiB (88%)
Writing library : XviD 1.0.2 (UTC 2004-08-29)

Audio
Format : MPEG Audio
Format version : Version 1
Format profile : Layer 3
Codec ID : 55
Codec ID/Hint : MP3
Duration : 43mn 4s
Bit rate mode : Constant
Bit rate : 128 Kbps
Channel(s) : 2 channels
Sampling rate : 48.0 KHz
Resolution : 16 bits
Stream size : 39.4 MiB (11%)
Alignment : Split accross interleaves
Interleave, duration : 42 ms (1.00 video frame)
Interleave, preload duration : 500 ms
Writing library : LAME3.96

-----

General
Complete name : Battlestar.Galactica.S04E14.VOSTFR.avi
Format : AVI
Format/Info : Audio Video Interleave
File size : 381 MiB
Duration : 43mn 3s
Overall bit rate : 1 235 Kbps
Writing application : transcode-1.0.2
Writing library : VirtualDub build 30009/release

Video
Format : MPEG-4 Visual
Format profile : Streaming [email protected]
Format settings, BVOP : Yes
Format settings, QPel : No
Format settings, GMC : No warppoints
Format settings, Matrix : Default
Muxing mode : Packed bitstream
Codec ID : XVID
Codec ID/Hint : XviD
Duration : 43mn 3s
Bit rate : 1 098 Kbps
Width : 624 pixels
Height : 352 pixels
Display aspect ratio : 16/9
Frame rate : 23.976 fps
Resolution : 24 bits
Colorimetry : 4:2:0
Scan type : Progressive
Bits/(Pixel*Frame) : 0.208
Stream size : 338 MiB (89%)
Writing library : XviD 1.1.2 (UTC 2006-11-01)

Audio
Format : MPEG Audio
Format version : Version 1
Format profile : Layer 3
Codec ID : 55
Codec ID/Hint : MP3
Duration : 43mn 3s
Bit rate mode : Constant
Bit rate : 128 Kbps
Channel(s) : 2 channels
Sampling rate : 48.0 KHz
Resolution : 16 bits
Stream size : 39.4 MiB (10%)
Alignment : Split accross interleaves
Interleave, duration : 42 ms (1.00 video frame)
Interleave, preload duration : 500 ms

-----

General
Complete name : Battlestar.Galactica.S04E15.VOSTFR.avi
Format : AVI
Format/Info : Audio Video Interleave
File size : 381 MiB
Duration : 43mn 7s
Overall bit rate : 1 235 Kbps
Writing application : transcode-1.0.2
Writing library : VirtualDub build 30009/release

Video
Format : MPEG-4 Visual
Format profile : Streaming [email protected]
Format settings, BVOP : Yes
Format settings, QPel : No
Format settings, GMC : No warppoints
Format settings, Matrix : Default
Muxing mode : Packed bitstream
Codec ID : XVID
Codec ID/Hint : XviD
Duration : 43mn 7s
Bit rate : 1 098 Kbps
Width : 624 pixels
Height : 352 pixels
Display aspect ratio : 16/9
Frame rate : 23.976 fps
Resolution : 24 bits
Colorimetry : 4:2:0
Scan type : Progressive
Bits/(Pixel*Frame) : 0.208
Stream size : 339 MiB (89%)
Writing library : XviD 1.1.2 (UTC 2006-11-01)

Audio
Format : MPEG Audio
Format version : Version 1
Format profile : Layer 3
Codec ID : 55
Codec ID/Hint : MP3
Duration : 43mn 7s
Bit rate mode : Constant
Bit rate : 128 Kbps
Channel(s) : 2 channels
Sampling rate : 48.0 KHz
Resolution : 16 bits
Stream size : 39.5 MiB (10%)
Alignment : Split accross interleaves
Interleave, duration : 42 ms (1.00 video frame)
Interleave, preload duration : 500 ms

-----

General
Complete name : Battlestar.Galactica.S04E16.VOSTFR.avi
Format : AVI
Format/Info : Audio Video Interleave
File size : 380 MiB
Duration : 43mn 2s
Overall bit rate : 1 235 Kbps
Writing application : transcode-1.0.2
Writing library : VirtualDub build 30009/release

Video
Format : MPEG-4 Visual
Format profile : Streaming [email protected]
Format settings, BVOP : Yes
Format settings, QPel : No
Format settings, GMC : No warppoints
Format settings, Matrix : Default
Muxing mode : Packed bitstream
Codec ID : XVID
Codec ID/Hint : XviD
Duration : 43mn 2s
Bit rate : 1 097 Kbps
Width : 624 pixels
Height : 352 pixels
Display aspect ratio : 16/9
Frame rate : 23.976 fps
Resolution : 24 bits
Colorimetry : 4:2:0
Scan type : Progressive
Bits/(Pixel*Frame) : 0.208
Stream size : 338 MiB (89%)
Writing library : XviD 1.1.2 (UTC 2006-11-01)

Audio
Format : MPEG Audio
Format version : Version 1
Format profile : Layer 3
Codec ID : 55
Codec ID/Hint : MP3
Duration : 43mn 2s
Bit rate mode : Constant
Bit rate : 128 Kbps
Channel(s) : 2 channels
Sampling rate : 48.0 KHz
Resolution : 16 bits
Stream size : 39.4 MiB (10%)
Alignment : Split accross interleaves
Interleave, duration : 42 ms (1.00 video frame)
Interleave, preload duration : 500 ms

-----

General
Complete name : Battlestar.Galactica.S04E17.VOSTFR.avi
Format : AVI
Format/Info : Audio Video Interleave
File size : 383 MiB
Duration : 43mn 18s
Overall bit rate : 1 235 Kbps
Writing application : transcode-1.0.2
Writing library : VirtualDub build 30009/release

Video
Format : MPEG-4 Visual
Format profile : Streaming [email protected]
Format settings, BVOP : Yes
Format settings, QPel : No
Format settings, GMC : No warppoints
Format settings, Matrix : Default
Muxing mode : Packed bitstream
Codec ID : XVID
Codec ID/Hint : XviD
Duration : 43mn 18s
Bit rate : 1 097 Kbps
Width : 624 pixels
Height : 352 pixels
Display aspect ratio : 16/9
Frame rate : 23.976 fps
Resolution : 24 bits
Colorimetry : 4:2:0
Scan type : Progressive
Bits/(Pixel*Frame) : 0.208
Stream size : 340 MiB (89%)
Writing library : XviD 1.1.2 (UTC 2006-11-01)

Audio
Format : MPEG Audio
Format version : Version 1
Format profile : Layer 3
Codec ID : 55
Codec ID/Hint : MP3
Duration : 43mn 18s
Bit rate mode : Constant
Bit rate : 128 Kbps
Channel(s) : 2 channels
Sampling rate : 48.0 KHz
Resolution : 16 bits
Stream size : 39.7 MiB (10%)
Alignment : Split accross interleaves
Interleave, duration : 42 ms (1.00 video frame)
Interleave, preload duration : 500 ms

-----

General
Complete name : Battlestar.Galactica.S04E18.VOSTFR.avi
Format : AVI
Format/Info : Audio Video Interleave
File size : 382 MiB
Duration : 43mn 14s
Overall bit rate : 1 235 Kbps
Writing application : transcode-1.0.2
Writing library : VirtualDub build 30009/release

Video
Format : MPEG-4 Visual
Format profile : Streaming [email protected]
Format settings, BVOP : Yes
Format settings, QPel : No
Format settings, GMC : No warppoints
Format settings, Matrix : Default
Muxing mode : Packed bitstream
Codec ID : XVID
Codec ID/Hint : XviD
Duration : 43mn 14s
Bit rate : 1 098 Kbps
Width : 624 pixels
Height : 352 pixels
Display aspect ratio : 16/9
Frame rate : 23.976 fps
Resolution : 24 bits
Colorimetry : 4:2:0
Scan type : Progressive
Bits/(Pixel*Frame) : 0.208
Stream size : 340 MiB (89%)
Writing library : XviD 1.1.2 (UTC 2006-11-01)

Audio
Format : MPEG Audio
Format version : Version 1
Format profile : Layer 3
Codec ID : 55
Codec ID/Hint : MP3
Duration : 43mn 14s
Bit rate mode : Constant
Bit rate : 128 Kbps
Channel(s) : 2 channels
Sampling rate : 48.0 KHz
Resolution : 16 bits
Stream size : 39.6 MiB (10%)
Alignment : Split accross interleaves
Interleave, duration : 42 ms (1.00 video frame)
Interleave, preload duration : 500 ms

-----

General
Complete name : Battlestar.Galactica.S04E19.VOSTFR.avi
Format : AVI
Format/Info : Audio Video Interleave
File size : 381 MiB
Duration : 43mn 13s
Overall bit rate : 1 233 Kbps
Writing application : transcode-1.0.2
Writing library : VirtualDub build 30009/release

Video
Format : MPEG-4 Visual
Format profile : Streaming [email protected]
Format settings, BVOP : Yes
Format settings, QPel : No
Format settings, GMC : No warppoints
Format settings, Matrix : Default
Muxing mode : Packed bitstream
Codec ID : XVID
Codec ID/Hint : XviD
Duration : 43mn 13s
Bit rate : 1 095 Kbps
Width : 624 pixels
Height : 352 pixels
Display aspect ratio : 16/9
Frame rate : 23.976 fps
Resolution : 24 bits
Colorimetry : 4:2:0
Scan type : Progressive
Bits/(Pixel*Frame) : 0.208
Stream size : 339 MiB (89%)
Writing library : XviD 1.1.2 (UTC 2006-11-01)

Audio
Format : MPEG Audio
Format version : Version 1
Format profile : Layer 3
Codec ID : 55
Codec ID/Hint : MP3
Duration : 43mn 13s
Bit rate mode : Constant
Bit rate : 128 Kbps
Channel(s) : 2 channels
Sampling rate : 48.0 KHz
Resolution : 16 bits
Stream size : 39.6 MiB (10%)
Alignment : Split accross interleaves
Interleave, duration : 42 ms (1.00 video frame)
Interleave, preload duration : 500 ms

-----

General
Complete name : Battlestar.Galactica.S04E20.VOSTFR.avi
Format : AVI
Format/Info : Audio Video Interleave
File size : 845 MiB
Duration : 1h 35mn
Overall bit rate : 1 236 Kbps
Writing application : transcode-1.0.2
Writing library : VirtualDub build 30009/release

Video
Format : MPEG-4 Visual
Format profile : Streaming [email protected]
Format settings, BVOP : Yes
Format settings, QPel : No
Format settings, GMC : No warppoints
Format settings, Matrix : Default
Muxing mode : Packed bitstream
Codec ID : XVID
Codec ID/Hint : XviD
Duration : 1h 35mn
Bit rate : 1 099 Kbps
Width : 624 pixels
Height : 352 pixels
Display aspect ratio : 16/9
Frame rate : 23.976 fps
Resolution : 24 bits
Colorimetry : 4:2:0
Scan type : Progressive
Bits/(Pixel*Frame) : 0.209
Stream size : 751 MiB (89%)
Writing library : XviD 1.1.2 (UTC 2006-11-01)

Audio
Format : MPEG Audio
Format version : Version 1
Format profile : Layer 3
Codec ID : 55
Codec ID/Hint : MP3
Duration : 1h 35mn
Bit rate mode : Constant
Bit rate : 128 Kbps
Channel(s) : 2 channels
Sampling rate : 48.0 KHz
Resolution : 16 bits
Stream size : 87.5 MiB (10%)
Alignment : Split accross interleaves
Interleave, duration : 42 ms (1.00 video frame)
Interleave, preload duration : 500 ms

related torrents

Torrent name

health leech seeds Size
 

comments (0)

Main Menu