Action

Unsichtbarer Feind German DVD Rip XviD MP3

  • Download 5x Faster
  • Download torrent
  • Direct Download
  • Rate this torrent +  |  -
Unsichtbarer Feind German DVD Rip XviD MP3

Anonymous and Free Direct Download


Torrent info

Name:Unsichtbarer Feind German DVD Rip XviD MP3

Total Size: 691.77 MB

Magnet: Magnet Link

Seeds: 0

Leechers: 0

Stream: Watch Online @ Movie4u

Last Updated: 2011-02-05 09:48:48 (Update Now)

Torrent added: 2008-07-22 03:33:31



VPN For Torrents

Torrent Files List


Unsichtbar.nfo (Size: 691.77 MB) (Files: 3)

 Unsichtbar.nfo

1.79 KB

 Unsichtbarer Feind.avi

691.62 MB

 showbigcover.php.jpg

154.14 KB
 

Announce URL: http://tracker.publicbt.com/announce

Torrent description

Torrent Name: Unsichtbarer Feind

-------------------------

--> Movie/Serie

Sprache: Deutsch

Quelle: DVD-Rip

Genre: Action


Untertitel: -keine-

Extras: -keine-



-------------------------

Beschreibung:
John Sands arbeitet als Spezialagent für eine Untergrundabteilung der U.S.-Air Force. Als sich die Abteilung durch Informationen, die Sands während früherer Einsätze erhalten hat, bedroht fühlt, beschließen seine Vorgesetzten, ihn einzusperren und sein Gedächtnis auszulöschen. John gelingt zwar die Flucht aus dem High-Tech-Gefängnis, doch er wird schnell wieder gefasst und erhält ein Angebot, das er nicht ablehnen kann: Wenn Sands einen streng geheimen Stealth-Bomber in den amerikanischen Luftraum zurückbringt, wird er freigelassen. Wenn er versagt, fällt der Bomber in die Hände eiskalter Terroristen, die die Maschine mit biologischen Kampfstoffen beladen wollen. Ein gnadenloser Wettlauf gegen die Zeit beginnt, als Sands sich in die Reihen seiner Widersacher einschleust und sich auf eine Luftschlacht um sein Leben und die Rettung tausender von Menschenleben einlässt!





-------------------------

Teschnische Details:
General
Complete name : Unsichtbarer Feind.avi
Format : AVI
Format/Info : Audio Video Interleave
File size : 692 MiB
Duration : 1h 38mn
Overal bit rate : 985 Kbps
Writing application : Nandub v1.0rc2
Writing library : Nandub build 1852/release

Video
Format : MPEG-4 Visual
Format profile : Streaming [email protected]
Format settings, BVOP : Yes
Format settings, QPel : No
Format settings, GMC : No warpoints
Format settings, Matrix : Default
Muxing mode : Packet Bitstream
Codec ID : XVID
Codec ID/Hint : XviD
Duration : 1h 38mn
Bit rate : 813 Kbps
Width : 640 pixels
Height : 352 pixels
Display aspect ratio : 16/9
Frame rate : 23.976 fps
Resolution : 8 bits
Colorimetry : 4:2:0
Scan type : Progressive
Bits/(Pixel*Frame) : 0.151
Stream size : 571 MiB
Writing library : XviD 1.1.2 (UTC 2006-11-01)

Audio
Format : MPEG Audio
Format version : Version 1
Format profile : Layer 3
Codec ID : 55
Codec ID/Hint : MP3
Duration : 1h 38mn
Bit rate mode : Constant
Bit rate : 160 Kbps
Channel(s) : 2 channels
Sampling rate : 44.1 KHz
Resolution : 16 bits
Stream size : 112 MiB
Writing library : LAME3.95




--------------------------------------------

Note:

Happy Leeching und das Seeden nicht vergessen

Wuerdigt die Arbeit eines jeden Uppers mit einen Danke und/oder eines netten Kommentars.

Bin für Lob und Kritik stets offen.

--------------------------------------------



NFO File make with ZNFO Maker V6.0 Final
(C)2008 by Zero111

related torrents

Torrent name

health leech seeds Size
 


comments (0)

Main Menu