Comedy

Voll Normaaal 2004 German DVDrip XviD

  • Download 5x Faster
  • Download torrent
  • Direct Download
  • Rate this torrent +  |  -
Voll Normaaal 2004 German DVDrip XviD

Anonymous and Free Direct Download 300GB+


Torrent info

Name:Voll Normaaal 2004 German DVDrip XviD

Total Size: 704.27 MB

Magnet: Magnet Link

Seeds: 1

Leechers: 0

Stream: Watch Online @ Movie4u

Last Updated: 2010-12-28 08:01:45 (Update Now)

Torrent added: 2008-07-22 03:33:30



VPN For Torrents

Torrent Files List


Voll.Normal.2004.German.DVDrip.XviD-DiRtY.avi (Size: 704.27 MB) (Files: 4)

 Voll.Normal.2004.German.DVDrip.XviD-DiRtY.avi

699.95 MB

 info.nfo

2.07 KB

 poster.jpg

43.30 KB

 sample.avi

4.28 MB
 

Announce URL: http://wreckingcrew.hopto.org/announce.php

Torrent description

Torrent Name: Voll Normaaal

-------------------------

--> Movie/Serie

Sprache: Deutsch

Quelle: DVD-Rip

Genre: Comedy


Untertitel: -keine-

Extras: -keine-



-------------------------

Beschreibung:
Tommie ist der absolute Loser im Heimatviertel Köln-Kalk: Keine Kohle, keine eigene Wohnung, keine Freundin. In der Auspuff-Werkstatt, in der er malocht, ist der Meister ständig sauer auf ihn. Doch Tommie ist tierisch gut drauf: Der Videofreak träumt sich begeistert durch die Phantasiewelten der Filmkunst, vorzugsweise mit dem Oberweiten-Sexstar Gianna S. in der Hauptrolle. Tommie sammelt Auspuffe. Als er ein besonders kapitales Exemplar vom Protz Mercedes des Luden Jupp stiehlt, kriegt er richtig Ärger...






-------------------------

Teschnische Details:
General
Complete name : Voll.Normal.2004.German.DVDrip.XviD.avi
Format : AVI
Format/Info : Audio Video Interleave
File size : 700 MiB
Duration : 1h 31mn
Overal bit rate : 1075 Kbps
Writing application : VirtualDubMod 1.5.4.1 (build 2178/release)
Writing library : VirtualDubMod build 2178/release
IAS1 : Deutsch

Video
Format : MPEG-4 Visual
Format profile : Streaming [email protected]
Format settings, BVOP : Yes
Format settings, QPel : No
Format settings, GMC : No warpoints
Format settings, Matrix : Custom
Codec ID : XVID
Codec ID/Hint : XviD
Duration : 1h 31mn
Bit rate : 946 Kbps
Width : 608 pixels
Height : 384 pixels
Display aspect ratio : 1.583
Frame rate : 25.000 fps
Resolution : 8 bits
Colorimetry : 4:2:0
Scan type : Progressive
Bits/(Pixel*Frame) : 0.162
Stream size : 616 MiB
Writing library : XviD 1.2.0.dev47 (UTC 2006-11-01)

Audio
Format : MPEG Audio
Format version : Version 1
Format profile : Layer 3
Codec ID : 55
Codec ID/Hint : MP3
Duration : 1h 31mn
Bit rate mode : Variable
Bit rate : 116 Kbps
Minimum bit rate : 128 Kbps
Channel(s) : 2 channels
Sampling rate : 48.0 KHz
Resolution : 16 bits
Stream size : 75.6 MiB
Writing library : LAME3.97
Encoding settings : ABR



--------------------------------------------

Note:

Happy Leeching und das Seeden nicht vergessen

Wuerdigt die Arbeit eines jeden Uppers mit einen Danke und/oder eines netten Kommentars.

Bin für Lob und Kritik stets offen.

--------------------------------------------



NFO File make with ZNFO Maker V6.0 Final
(C)2008 by Zero111

related torrents

Torrent name

health leech seeds Size
 


comments (0)

Main Menu