Other

The Batman S01 S02 Complete German dTV FS XviD

  • Download 5x Faster
  • Download torrent
  • Direct Download
  • Rate this torrent +  |  -
The Batman S01 S02 Complete German dTV FS XviD

Free and Direct Download with Usenet.nl 300GB+ free


Torrent info

Name:The Batman S01 S02 Complete German dTV FS XviD

Total Size: 7.57 GB

Magnet: Magnet Link

Seeds: 0

Leechers: 0

Stream: Watch Online @ Movie4u

Last Updated: 2010-09-03 00:08:53 (Update Now)

Torrent added: 2009-08-23 00:55:54





Torrent Files List


Staffel 2 (Size: 7.57 GB) (Files: 28)

 Staffel 2

  The Batman Staffel 2 - Cover.jpg

532.58 KB

  The Batman - S02 E13 - Des Raetsels Loesung.avi

298.28 MB

  The Batman - S02 E12 - Wer zuletzt lacht....avi

298.58 MB

  The Batman - S02 E11 - Suesses und Saures.avi

298.55 MB

  The Batman - S02 E10 - Gedankenuebertragung.avi

298.23 MB

  The Batman - S02 E09 - Zwei geteilt durch drei.avi

298.26 MB

  The Batman - S02 E08 - Eine heisskalte Nacht.avi

298.36 MB

  The Batman - S02 E07 - Das vierte Auge.avi

298.21 MB

  The Batman - S02 E06 - Abschied von Bennett.avi

298.31 MB

  The Batman - S02 E05 - Fledermaeuse und Pinguine.avi

297.95 MB

  The Batman - S02 E04 - Zahn um Zahn.avi

298.30 MB

  The Batman - S02 E03 - Fernsehen zum Totlachen.avi

297.94 MB

  The Batman - S02 E02 - Die Nacht der Raetsel.avi

298.16 MB

  The Batman - S02 E01 - Pinguin und die Aegypter.avi

298.25 MB

 Staffel 1

  The Batman Staffel 1 - Cover.jpg

773.68 KB

  The Batman - S01 E13 - Ueberall und Jeder.avi

298.03 MB

  The Batman - S01 E12 - Joker macht Ernst.avi

297.75 MB

  The Batman - S01 E11 - Pinguin auf falscher Faerte.avi

298.06 MB

  The Batman - S01 E10 - Batman ist Trumpf.avi

298.17 MB

  The Batman - S01 E09 - Kein Puppenspiel.avi

298.08 MB

  The Batman - S01 E08 - Frage und Antwort.avi

297.74 MB

  The Batman - S01 E07 - Eine Krawatte ist nicht alles.avi

298.17 MB

  The Batman - S01 E06 - Wie Katz und Fledermaus.avi

297.97 MB

  The Batman - S01 E05 - Der grosse Frost.avi

298.10 MB

  The Batman - S01 E04 - Batman X 2.avi

297.73 MB

  The Batman - S01 E03 - Der Ruf des Cobblepots.avi

297.81 MB

  The Batman - S01 E02 - Hals- und Beinbruch.avi

298.06 MB

  The Batman - S01 E01 - Jokers Lachgas.avi

297.99 MB
 

Announce URL: http://irrenhaus.dyndns.dk/announce.php

Torrent description




Free Leech


The.Batman.S01.S02.Complete.German.dTV.FS.XviD

Kurzbeschreibung:

"The Batman" beschäftigt sich mit den Anfangsjahren des weltbekannten "Dunklen Ritters",
der zum ersten Mal auf die berühmten Schurken von Gotham City stt: Joker, Pinguin,
Catwoman und Mr. Freeze sind nur einige der Unruhestifter, denen Batman den Kampf ansagt.
Die Presse und die Polizei sind ihm dicht auf den Fersen, doch dessen unbeirrt
greift er jederzeit ein, wenn finstere Verbrechen die Ordnung Gotham Citys bedrohen.


Staffel 1

Jokers Lachgas
Der Ruf des Cobblepots
Hals- und Beinbruch
Wie Katz und Fledermaus
Batman x2
Der große Frost
Krawatte ist nicht alles
Frage und Antwort
Kein Puppenspiel
Batman ist Trumpf
Pinguin auf falscher Fährte
Joker macht Ernst
Überall und jeder


Staffel 2

Pinguin und Ägypter
Die Nacht der Rätsel
Fernsehen zum Totlachen
Zahn um Zahn
Fledermäuse und Pinguine
Abschied von Bennett
Das vierte Auge
Eine Heißkalte Nacht
Zwei geteilt durch drei
Gedankenübertragung
Ses oder Saures
Wer zuletzt Lacht...
Des Rätsels Lösung



Format : AVI
Quelle : dTV
Format/Info : Audio Video Interleave
Dateigre : 298 MiB
Duration : 19min
Gesamte Bitrate : 2108 Kbps


Video
Format : MPEG-4 Visual
Format profile : Streaming [email protected]
Format settings, BVOP : Ja
Format settings, QPel : Nein
Format settings, GMX : No warpoints
Format settings, Matrix : Default
Muxing mode : Packet Bitstream
Codec ID : XVID
Codec ID/Hint : XviD
Duration : 19min
Bitrate : 1970 Kbps
Breite : 688 Pixel
Höhe : 544 Pixel
Bildseitenverhältnis : 5/4
Bildwiederholungsrate : 25.000 FPS
Auflösung : 8 bits
Colorimetry : 4:2:0
Bits/(Pixel*Frame) : 0.211
Stream size : 279 MiB

Audio
Format : MPEG Audio
Format version : Version 1
Format profile : Layer 3
Codec ID : 55
Codec ID/Hint : MP3
Bitraten-Modus : Constant
Bitrate : 128 Kbps
Minimum bit rate : 128 Kbps
Kanäle : 2 Kanäle
Samplingrate : 48.0 KHz
Auflösung : 16 bits
Stream size : 18.1 MiB

related torrents

Torrent name

health leech seeds Size
 

comments (0)

Main Menu