Other

Underworld Everything, Everything

  • Download 5x Faster
  • Download torrent
  • Direct Download
  • Rate this torrent +  |  -
Underworld Everything, Everything

Anonymous and Free Direct Download


Torrent info

Name:Underworld Everything, Everything

Total Size: 533.68 MB

Magnet: Magnet Link

Seeds: 0

Leechers: 0

Stream: Watch Online @ Movie4u

Last Updated: 2017-07-12 14:37:52 (Update Now)

Torrent added: 2009-08-23 00:19:42



VPN For Torrents

Torrent Files List


Tau (Size: 533.68 MB) (Files: 6)

 Tau

  Tau Track2.JPG

190.56 KB

  Tau.JPG

78.52 KB

 cover.jpg

33.48 KB

 Underworld - Everything, Everything.cue

0.95 KB

 Underworld - Everything, Everything.flac

533.38 MB

 Underworld - Everything, Everything.log

2.97 KB
 

Announce URL:

Torrent description


Genre: Techno, Tech House, Ambient
Year of the disc: 2000
Disc Manufacturer: Russia
Audio Codec: FLAC
Ripa type: image +. Cue
Bitrate audio: lossless
Duration: 01:15:22

Tracklist:
1 Juanita / Kiteless (12:53)
2 Cups (3:26)
3 Push Upstairs (7:28)
4 Pearls Girl (8:17)
5 Jumbo (8:33)
6 Shudder / King Of Snake (12:17)
7 Born Slippy Nuxx (10:56)
8 Rez / Cowgirl (11:47)

Log EAC


Exact Audio Copy V0.99 prebeta 4 from 23. January 2008
EAC extraction logfile from 23. December 2008, 13:15
Underworld / Everything, Everything
Used drive: HL-DT-STDVDRAM GSA-T10N Adapter: 1 ID: 1
Read mode: Secure
Utilize accurate stream: Yes
Defeat audio cache: Yes
Make use of C2 pointers: No
Read offset correction: 667
Overread into Lead-In and Lead-Out: No
Fill up missing offset samples with silence: Yes
Delete leading and trailing silent blocks: No
Null samples used in CRC calculations: Yes
Used interface: Native Win32 interface for Win NT & 2000
Used output format: User Defined Encoder
Selected bitrate: 768 kBit / s
Quality: High
Add ID3 tag: No
Command line compressor: C: \ Program Files \ Exact Audio Copy \ FLAC \ FLAC.EXE
Additional command line options: -6-V-T "ARTIST =% a"-T "TITLE =% t"-T "ALBUM =% g"-T "DATE =% y"-T "TRACKNUMBER =% n" -- T "GENRE =% m"-T "COMMENT =% e"% s-o% d
TOC of the extracted CD
Track | Start | Length | Start sector | End sector
-------------------------------------------------- -------
1 | 0:00.00 | 12:35.70 | 0 | 56694
2 | 12:35.70 | 3:26.05 | 56695 | 72149
3 | 16:02.00 | 7:28.60 | 72150 | 105809
4 | 23:30.60 | 8:17.25 | 105810 | 143109
5 | 31:48.10 | 8:33.15 | 143110 | 181599
6 | 40:21.25 | 12:17.00 | 181600 | 236874
7 | 52:38.25 | 10:56.22 | 236875 | 286096
8 | 63:34.47 | 11:47.35 | 286097 | 339156
Range status and errors
Selected range
Filename C: \ Documents and Settings \ Bo \ Desktop \ Underworld \ Underworld - Everything, Everything.wav
Peak level 97.9%
Range quality 100.0%
Test CRC EC1A617E
Copy CRC EC1A617E
Copy OK
No errors occurred
AccurateRip summary
Track 1 cannot be verified as accurate (confidence 2) [16C4D9EE], AccurateRip returned [B816DD0A]
Track 2 cannot be verified as accurate (confidence 2) [0E764982], AccurateRip returned [3567E27A]
Track 3 cannot be verified as accurate (confidence 2) [C5652980], AccurateRip returned [23AD059F]
Track 4 cannot be verified as accurate (confidence 2) [84662EBF], AccurateRip returned [6DBEA1E4]
Track 5 cannot be verified as accurate (confidence 2) [84321FCC], AccurateRip returned [D188304F]
Track 6 cannot be verified as accurate (confidence 2) [040756A9], AccurateRip returned [14278A0C]
Track 7 cannot be verified as accurate (confidence 2) [E62E47F6], AccurateRip returned [F2B08BE7]
Track 8 cannot be verified as accurate (confidence 21) [4608CE0A], AccurateRip returned [EDE4B42E]
No tracks could be verified as accurate
You may have a different pressing from the one (s) in the database
End of status report

related torrents

Torrent name

health leech seeds Size
 


comments (0)

Main Menu