Other

EUReKA S02E04 Das verrueckte Licht German Dubbed DL DVDRIP WS XviD TvR

  • Download 5x Faster
  • Download torrent
  • Direct Download
  • Rate this torrent +  |  -
EUReKA S02E04 Das verrueckte Licht German Dubbed DL DVDRIP WS XviD TvR

Free and Direct Download with Usenet 300GB+ free


Torrent info

Name:EUReKA S02E04 Das verrueckte Licht German Dubbed DL DVDRIP WS XviD TvR

Total Size: 387.58 MB

Magnet: Magnet Link

Seeds: 0

Leechers: 0

Stream: Watch Online @ Movie4u

Last Updated: 2010-12-27 07:22:16 (Update Now)

Torrent added: 2008-07-21 21:43:11




Torrent Files List


EUReKA.S02E04.Das.verueckte.Licht.avi (Size: 387.58 MB) (Files: 1)

 EUReKA.S02E04.Das.verueckte.Licht.avi

387.58 MB
 

Announce URL:

Torrent description

Torrent Name: Eureka S02E04 Das verrückte Licht

-------------------------

--> Movie/Serie

Sprache: Deutsch

Quelle: DVD-Rip LD

Genre: Comedy/SciFi


Untertitel: --keine--

Extras: --keine--



-------------------------

Beschreibung:
-- Sry keine vorhanden da Brandneue Folge --

-------------------------

Teschnische Details:
General
Complete name : EUReKA.S02E04.Das.verueckte.Licht.avi
Format : AVI
Format/Info : Audio Video Interleave
File size : 388 MiB
Duration : 41mn 27s
Overal bit rate : 1307 Kbps
Writing application : VirtualDubMod 1.5.10.2 (build 2540/release)
Writing library : VirtualDubMod build 2540/release

Video
Format : MPEG-4 Visual
Format profile : Streaming [email protected]
Format settings, BVOP : Yes
Format settings, QPel : No
Format settings, GMC : No warpoints
Format settings, Matrix : Default
Codec ID : XVID
Codec ID/Hint : XviD
Duration : 41mn 27s
Bit rate : 1016 Kbps
Width : 624 pixels
Height : 352 pixels
Display aspect ratio : 16/9
Frame rate : 25.000 fps
Original frame rate : 23.976 fps
Resolution : 8 bits
Colorimetry : 4:2:0
Scan type : Progressive
Bits/(Pixel*Frame) : 0.185
Stream size : 301 MiB
Writing library : XviD 1.1.2 (UTC 2006-11-01)

Audio #1
Format : MPEG Audio
Format version : Version 1
Format profile : Layer 3
Codec ID : 55
Codec ID/Hint : MP3
Duration : 41mn 27s
Bit rate mode : Variable
Bit rate : 127 Kbps
Minimum bit rate : 133 Kbps
Channel(s) : 2 channels
Sampling rate : 48.0 KHz
Resolution : 16 bits
Stream size : 37.8 MiB
Writing library : LAME3.97
Encoding settings : ABR

Audio #2
Format : MPEG Audio
Format version : Version 1
Format profile : Layer 3
Codec ID : 55
Codec ID/Hint : MP3
Duration : 41mn 27s
Bit rate mode : Variable
Bit rate : 127 Kbps
Minimum bit rate : 133 Kbps
Channel(s) : 2 channels
Sampling rate : 48.0 KHz
Resolution : 16 bits
Stream size : 37.6 MiB
Writing library : LAME3.97
Encoding settings : ABR






--------------------------------------------

Note:

Happy Leeching und das Seeden nicht vergessen

Wuerdigt die Arbeit eines jeden Uppers mit einen Danke und/oder eines netten Kommentars.

Bin für Lob und Kritik stets offen.

--------------------------------------------



NFO File make with ZNFO Maker V6.0 Final
(C)2008 by Zero111

related torrents

Torrent name

health leech seeds Size
 

comments (0)

Main Menu