Other

Afterlife S02 DVDRip XViD GTV (Atilla82)

  • Download 5x Faster
  • Download torrent
  • Direct Download
  • Rate this torrent +  |  -
Afterlife S02 DVDRip XViD GTV (Atilla82)

Anonymous and Free Direct Download 300GB+


Torrent info

Name:Afterlife S02 DVDRip XViD GTV (Atilla82)

Total Size: 2.75 GB

Magnet: Magnet Link

Seeds: 0

Leechers: 2

Stream: Watch Online @ Movie4u

Last Updated: 0000-00-00 00:00:00 (Update Now)

Torrent added: 2009-08-22 23:58:49



VPN For Torrents

Torrent Files List


Afterlife.S02E02.The.Rat.Man.DVDRip.XviD-GTV.avi (Size: 2.75 GB) (Files: 12)

 Afterlife.S02E02.The.Rat.Man.DVDRip.XviD-GTV.avi

350.06 MB

 Afterlife.S02E01.Roadside.Bouquets.DVDRip.XviD-GTV.avi

349.80 MB

 afterlife.jpg

18.85 KB

 Afterlife.S02E03.Lullaby.DVDRip.XviD-GTV.avi

350.07 MB

 Afterlife.S02E04.Your.Hand.In.Mine.DVDRip.XviD-GTV.avi

349.77 MB

 Afterlife.S02E05.Mirrorball.DVDRip.XviD-GTV.avi

349.67 MB

 Afterlife.S02E06.Mind.The.Bugs.Don't.Bite.DVDRip.XviD-GTV.avi

349.96 MB

 Afterlife.S02E07.Things.Forgotten.DVDRip.XviD-GTV.avi

349.24 MB

 Afterlife.S02E08.A.Name.Written.In.Water.DVDRip.XviD-GTV.avi

349.93 MB

 Sample.avi

22.04 MB

 Subs.eng.rar

101.11 KB

 Torrent downloaded from Demonoid.com.txt

0.05 KB
 

Announce URL: http://tracker.torrentbox.com:2710/announce

Torrent description

University lecturer Robert Bridge (Andrew Lincoln) becomes involved in a series of supernatural events surrounding medium Alison Mundy (Lesley Sharp) in this chilling TV series.




General
Format : AVI
Overall bit rate : 1 062 Kbps
Writing application : VirtualDubMod 1.5.10.2 (build 2540/release)
Writing library : VirtualDubMod build 2540/release

Video
Format : MPEG-4 Visual
Format profile : Streaming [email protected]
Format settings, BVOP : Yes
Format settings, Matrix : Default (H.263)
Muxing mode : Packed bitstream
Codec ID : XVID
Bit rate : 945 Kbps
Width : 640 pixels
Height : 352 pixels
Display aspect ratio : 16/9
Frame rate : 25.000 fps
Resolution : 24 bits
Colorimetry : 4:2:0
Scan type : Progressive
Bits/(Pixel*Frame) : 0.168
Stream size : 311 MiB (89%)
Writing library : XviD 1.1.0 (UTC 2005-11-22)

Audio
Format : MPEG Audio
Format version : Version 1
Format profile : Layer 3
Codec ID : 55
Codec ID/Hint : MP3
Bit rate mode : Variable
Bit rate : 104 Kbps
Minimum bit rate : 32.0 Kbps
Channel(s) : 2 channels
Sampling rate : 48.0 KHz
Resolution : 16 bits
Stream size : 34.3 MiB (10%)
Alignment : Aligned on interleaves
Interleave, duration : 24 ms (0.60 video frame)
Interleave, preload duration : 276 ms
Writing library : LAME3.97b
Encoding settings : -m j -V 5 -q 3 -lowpass 16 --vbr-new -b 32



Subtitles: english.srt

related torrents

Torrent name

health leech seeds Size
 


comments (0)

Main Menu