Funny clips

banana split sat15aug2009 PHILIPPINES tvrip (TAGALOG) [tukmol101]

  • Download 5x Faster
  • Download torrent
  • Direct Download
  • Rate this torrent +  |  -


Torrent info

Name:banana split sat15aug2009 PHILIPPINES tvrip (TAGALOG) [tukmol101]

Total Size: 414.57 MB

Magnet: Magnet Link

Seeds: 0

Leechers: 0

Stream: Watch Online @ Movie4u

Last Updated: 2015-10-17 13:54:55 (Update Now)

Torrent added: 2009-08-22 23:44:08




Torrent Files List


Torrent downloaded from Demonoid.com.txt (Size: 414.57 MB) (Files: 3)

 Torrent downloaded from Demonoid.com.txt

0.05 KB

 BANANA SPLIT SAT15AUG2009.avi

391.51 MB

 sample

  BANANA SPLIT SAT15AUG2009 sample.avi

23.06 MB
 

tracker

leech seeds
 

Torrent description

CHECK HERE
BANANA SPLIT
The new season of Banana Split welcomes a new barkada. Joining sexy and pretty girls Angelica Panganiban,
Cristine Reyes, Princess Ryan, and RR Enriquez are the wacky trio of John Prats, Jayson Gainza, and Zanjoe
Marudo. Also taking comedy to the next level is the hilarious tandem of Pokwang and Pooh. Watch out for new
sketches, segments, and spoofs that will surely make your
Saturday nights hilarious as ever.

SAMPLE INCLUDED
Format : AVI
Format/Info : Audio Video Interleave
File size : 392 MiB
Duration : 29mn 35s
Overall bit rate : 1 850 Kbps
Writing application : VirtualDubMod 1.5.4.1 (build 2178/release)
Writing library : VirtualDub build 32559/release

Video
ID : 0
Format : MPEG-4 Visual
Format profile : [email protected]
Format settings, BVOP : Yes
Format settings, QPel : No
Format settings, GMC : No warppoints
Format settings, Matrix : Default (H.263)
Muxing mode : Packed bitstream
Codec ID : XVID
Codec ID/Hint : XviD
Duration : 29mn 35s
Bit rate : 1 728 Kbps
Width : 512 pixels
Height : 384 pixels
Display aspect ratio : 4:3
Frame rate : 29.970 fps
Resolution : 24 bits
Colorimetry : 4:2:0
Scan type : Progressive
Bits/(Pixel*Frame) : 0.293
Stream size : 366 MiB (93%)
Writing library : XviD 1.2.1 (UTC 2008-12-04)

Audio
ID : 1
Format : MPEG Audio
Format version : Version 1
Format profile : Layer 3
Codec ID : 55
Codec ID/Hint : MP3
Duration : 29mn 35s
Bit rate mode : Variable
Bit rate : 108 Kbps
Channel(s) : 2 channels
Sampling rate : 48.0 KHz
Resolution : 16 bits
Stream size : 22.8 MiB (6%)
Alignment : Aligned on interleaves
Interleave, duration : 24 ms (0.72 video frame)

related torrents

Torrent name

health leech seeds Size
 


comments (0)

Main Menu