Other

100 BEDTIME SONGS&[email protected] DVDRIP[ENG]

  • Download 5x Faster
  • Download torrent
  • Direct Download
  • Rate this torrent +  |  -

Torrent info

Name:100 BEDTIME SONGS&[email protected] DVDRIP[ENG]

Total Size: 365.47 MB

Magnet: Magnet Link

Seeds: 0

Leechers: 0

Stream: Watch Online @ Movie4u

Last Updated: 0000-00-00 00:00:00 (Update Now)

Torrent added: 2009-08-22 23:36:56



VPN For Torrents

Torrent Files List


100_FAVOURITE_BEDTIME (Size: 365.47 MB) (Files: 3)

 100_FAVOURITE_BEDTIME

  TITLE01.avi

365.44 MB

 Torrent downloaded from Demonoid.com.txt

0.05 KB

 Noname.jpg

39.15 KB
 

Announce URL: http://inferno.demonoid.com:3409/announce

Torrent description

A beautifully animated production made with pre-schoolers in mind, featuring the best-loved and most traditional bedtime songs and rhymes.


General
Complete name : C:\Users\joker\Documents\100 BEDTIME SONGS&[email protected] DVDRIP[ENG]\100_FAVOURITE_BEDTIME\TITLE01.avi
Format : AVI
Format/Info : Audio Video Interleave
File size : 365 MiB
Duration : 40mn 0s
Overall bit rate : 1 277 Kbps

Video
Format : MPEG-4 Visual
Format profile : [email protected]
Format settings, BVOP : No
Format settings, QPel : No
Format settings, GMC : No warppoints
Format settings, Matrix : Default
Codec ID : XVID
Codec ID/Hint : XviD
Duration : 40mn 0s
Bit rate : 1 137 Kbps
Width : 640 pixels
Height : 360 pixels
Display aspect ratio : 16/9
Frame rate : 25.000 fps
Resolution : 24 bits
Colorimetry : 4:2:0
Scan type : Progressive
Bits/(Pixel*Frame) : 0.197
Stream size : 325 MiB (89%)
Writing library : Magic0432

Audio
Format : MPEG Audio
Format version : Version 1
Format profile : Layer 3
Codec ID : 55
Codec ID/Hint : MP3
Duration : 39mn 57s
Bit rate mode : Constant
Bit rate : 128 Kbps
Channel(s) : 2 channels
Sampling rate : 44.1 KHz
Resolution : 16 bits
Stream size : 36.6 MiB (10%)
Alignment : Aligned on interleaves
Interleave, duration : 26 ms (0.65 video frame)
Writing library : LAME3.97

related torrents

Torrent name

health leech seeds Size
 


comments (0)

Main Menu