Funny clips

bubble gang friaug212009 PHILIPPINES tvrip

  • Download 5x Faster
  • Download torrent
  • Direct Download
  • Rate this torrent +  |  -
bubble gang friaug212009 PHILIPPINES tvrip

Free and Direct Download with Usenet.nl 300GB+ free


Torrent info

Name:bubble gang friaug212009 PHILIPPINES tvrip

Total Size: 495.24 MB

Magnet: Magnet Link

Seeds: 0

Leechers: 0

Stream: Watch Online @ Movie4u

Last Updated: 2015-09-27 16:11:44 (Update Now)

Torrent added: 2009-08-22 23:12:43





Torrent Files List


sample.avi (Size: 495.24 MB) (Files: 3)

 sample.avi

7.10 MB

 Torrent downloaded from Demonoid.com.txt

0.05 KB

 bubble gang fri21aug2009 PHILIPPINES TVRIP.avi

488.14 MB
 

tracker

leech seeds
 

Torrent description

SAMPLE INCLUDED
Bubble Gang
CHECK THIS OUT

Are you ready to laugh til you drop? For more than a decade, Bubble Gang has made audiences around the
country roll over with laughter. Their commercial spoofs and recurring characters keep everyone in stitches
while the parodies on politicians prove that nothing is sacred to their funny bones. The gang's gags and
segments continue to make this the country's funniest spoof show.

Year: 1995
Genre: Comedy
Cast:

Michael V., Ogie Alcasid, Wendell Ramos, Antonio Aquitania, Boy2 Quizon,
Rufa Mae Quinto, Ara Mina, Maureen Larazabal, Diana Zubiri, Francine Prieto, Gian Carlos

Rating: PG
Network: GMA7
Format : AVI
Format/Info : Audio Video Interleave
File size : 488 MiB
Duration : 49mn 31s
Overall bit rate : 1 378 Kbps
Writing application : VirtualDubMod 1.5.4.1 (build 2178/release)
Writing library : VirtualDubMod build 2178/release

Video
ID : 0
Format : MPEG-4 Visual
Format profile : [email protected]
Format settings, BVOP : Yes
Format settings, QPel : No
Format settings, GMC : No warppoints
Format settings, Matrix : Default (H.263)
Muxing mode : Packed bitstream
Codec ID : XVID
Codec ID/Hint : XviD
Duration : 49mn 31s
Bit rate : 1 267 Kbps
Width : 432 pixels
Height : 320 pixels
Display aspect ratio : 4:3
Frame rate : 29.970 fps
Resolution : 24 bits
Colorimetry : 4:2:0
Scan type : Progressive
Bits/(Pixel*Frame) : 0.306
Stream size : 449 MiB (92%)
Writing library : XviD 1.2.1 (UTC 2008-12-04)

Audio
ID : 1
Format : MPEG Audio
Format version : Version 1
Format profile : Layer 3
Codec ID : 55
Codec ID/Hint : MP3
Duration : 49mn 31s
Bit rate mode : Variable
Bit rate : 99.6 Kbps
Nominal bit rate : 128 Kbps
Channel(s) : 2 channels
Sampling rate : 32.0 KHz
Resolution : 16 bits
Stream size : 35.3 MiB (7%)
Alignment : Aligned on interleaves
Interleave, duration : 36 ms (1.08 video frame)
Interleave, preload duration : 549 ms
Writing library : LAME3.98r
Encoding settings : -m j -V 4 -q 2 -lowpass 16 --abr 128

related torrents

Torrent name

health leech seeds Size
 

comments (0)

Main Menu