'Allo 'Allo!

Ritas Welt Staffel 4 FS German DVD Rip DivX

  • Download 5x Faster
  • Download torrent
  • Direct Download
  • Rate this torrent +  |  -
Ritas Welt Staffel 4 FS German DVD Rip DivX

Anonymous and Direct Download 300GB+ free


Torrent info

Name:Ritas Welt Staffel 4 FS German DVD Rip DivX

Total Size: 3.39 GB

Magnet: Magnet Link

Seeds: 0

Leechers: 0

Stream: Watch Online @ Movie4u

Last Updated: 2015-11-06 18:46:21 (Update Now)

Torrent added: 2009-08-22 22:52:13




Torrent Files List


Ritas.Welt.Staffel.4.FS.German.DVD.Rip.DivX.nfo (Size: 3.39 GB) (Files: 14)

 Ritas.Welt.Staffel.4.FS.German.DVD.Rip.DivX.nfo

3.13 KB

 Ritas Welt S04E13 - Der einzige Zeuge.avi

222.95 MB

 Ritas Welt S04E12 - Der Fluch.avi

273.47 MB

 Ritas Welt S04E11 - Die Schoeffin.avi

270.94 MB

 Ritas Welt S04E10 - Gute Erholung.avi

271.00 MB

 Ritas Welt S04E09 - Ein alter Freund.avi

272.20 MB

 Ritas Welt S04E08 - Happy Birthday.avi

270.79 MB

 Ritas Welt S04E07 - Die Streithammel.avi

270.88 MB

 Ritas Welt S04E06 - Der Absturz.avi

271.93 MB

 Ritas Welt S04E05 - Frau Schumann.avi

271.31 MB

 Ritas Welt S04E04 - Is was Horst.avi

270.96 MB

 Ritas Welt S04E03 - Falscher Alarm.avi

271.35 MB

 Ritas Welt S04E02 - Die Klassenfahrt.avi

269.83 MB

 Ritas Welt S04E01 - Die Teilhaberin.avi

268.64 MB
 

tracker

leech seeds
 

Torrent description

::::Edelweis-Group Presents::::

Torrent Name: Ritas Welt Staffel 4 Complete

> Movie/Serie

Sprache: [X] Deutsch [ ] Englisch [ ] siehe Beschreibung

Video: [ ] HDTV [X] DVD [ ] TV/dTV [ ] TS [ ] Cam [ ] Sonstiges
Audio: [ ] AC3 [X] DVD [ ] TV/dTV [ ] LD [ ] Micro [ ] Sonstiges

Genre: TV-Serie/Comedy

Untertitel: keine

Extras: keine

Beschreibung:
Anpacken, zusammenhalten, Klartext reden - das ist Rita Kruse alias
Gaby Koester. Sie ist ein Multitalent des Alltags: Supermarktkassiererin
Hausfrau und Mutter. Ihr Leben wird staendig vom Chaos bedroht. Aber
Rita hat fuer jede Situation ein Patentrezept: Geradeaus und durch
egal was sich ihr in den Weg stellt

Technische Details:
General
Format : AVI
Format/Info : Audio Video Interleave
File size : 269 MiB
Duration : 22mn 54s
Overall bit rate : 1640 Kbps
Writing library : Boilsoft Joiner build 2411/release

Video
Format : MPEG-4 Visual
Format profile : [email protected]
Format settings, BVOP : No
Format settings, QPel : No
Format settings, GMC : No warppoints
Format settings, Matrix : Default
Codec ID : DX50
Codec ID/Hint : DivX 5
Duration : 22mn 54s
Bit rate : 1502 Kbps
Width : 720 pixels
Height : 576 pixels
Display aspect ratio : 4/3
Frame rate : 25.000 fps
Standard : PAL
Resolution : 8 bits
Colorimetry : 4:2:0
Scan type : Progressive
Bits/(Pixel*Frame) : 0.145
Stream size : 246 MiB (92)
Writing library : MasterSoft AV Encoder Core

Audio
Format : MPEG Audio
Format version : Version 1
Format profile : Layer 3
Codec ID : 55
Codec ID/Hint : MP3
Duration : 22mn 54s
Bit rate mode : Constant
Bit rate : 128 Kbps
Channel(s) : 2 channels
Sampling rate : 48.0 KHz
Resolution : 16 bits
Video delay : 8ms
Stream size : 21.0 MiB (8)
Alignment : Split accross interleaves
Interleave, duration : 40 ms (1.00 video frame)
Interleave, preload duration : 500 ms
Writing library : LAME3.97 (beta)

Note:

Happy leeching und das Seeden nicht vergessen!!

Wuerdigt die Arbeit jedes Uppers mit einen Danke und/oder eines netten Kommentars

Bin fuer Lob und Kritik stets offen

NFO File make with ZNFO Maker V6.6
(C)2008 by Edelweis-Group and VX / S4Y Crew

related torrents

Torrent name

health leech seeds Size
 


comments (0)

Main Menu